<?xml version="1.0" standalone="no"?>
<!DOCTYPE svg PUBLIC "-//W3C//DTD SVG 1.1//EN" "http://www.w3.org/Graphics/SVG/1.1/DTD/svg11.dtd" >
<svg xmlns="http://www.w3.org/2000/svg" xmlns:xlink="http://www.w3.org/1999/xlink" version="1.1">
<metadata>
Created by FontForge 20170731 at Thu Sep  1 19:55:23 2022
 By Aleksey,,,
Copyright (c) Mark Simonson, 2005. All rights reserved.
</metadata>
<defs>
<font id="ProximaNova-Bold" horiz-adv-x="1185" >
  <font-face 
    font-family="Proxima Nova Rg"
    font-weight="700"
    font-stretch="normal"
    units-per-em="2048"
    panose-1="2 0 5 6 3 0 0 2 0 4"
    ascent="1618"
    descent="-430"
    x-height="989"
    cap-height="1366"
    bbox="-352 -590 2349 1862"
    underline-thickness="40"
    underline-position="-312"
    unicode-range="U+000D-FB04"
  />
<missing-glyph horiz-adv-x="989" 
d="M854 -184h-719v1724h719v-1724zM788 -123v1602h-589v-1602h589z" />
    <glyph glyph-name="f_f_j" unicode="ffj" horiz-adv-x="1857" 
d="M1118 0h-262v762h-164v227h164v53q0 159 92.5 251.5t241.5 92.5q113 0 188 -40l-53 -189q-36 25 -84 25q-56 0 -89.5 -37t-33.5 -103v-53h201v-227h-201v-762zM1599 1096q-63 0 -109 45.5t-46 109.5t46 109t109 45q65 0 110.5 -45t45.5 -109t-45.5 -109.5t-110.5 -45.5z
M1378 -401q-90 0 -140.5 15t-107.5 54l72 195q60 -51 133 -51q62 0 98.5 40.5t36.5 120.5v1016h261v-1016q0 -174 -89.5 -274t-263.5 -100zM449 0h-263v762h-163v227h163v53q0 157 92 250.5t242 93.5q173 0 258 -92l-98 -153q-41 41 -109 41q-56 0 -89 -36.5t-33 -103.5v-53
h200v-227h-200v-762z" />
    <glyph glyph-name="f_j" unicode="fj" horiz-adv-x="1187" 
d="M449 0h-263v762h-163v227h163v53q0 159 92.5 251.5t241.5 92.5q114 0 189 -40l-54 -189q-36 25 -84 25q-56 0 -89 -36.5t-33 -103.5v-53h200v-227h-200v-762zM928 1096q-63 0 -109.5 45.5t-46.5 109.5t46 109t110 45q65 0 110 -45t45 -109q0 -65 -45.5 -110t-109.5 -45z
M707 -401q-90 0 -140.5 15t-107.5 54l71 195q60 -51 134 -51q62 0 98.5 40.5t36.5 120.5v1016h260v-1016q0 -174 -89 -274t-263 -100z" />
    <glyph glyph-name="f_f" unicode="ff" horiz-adv-x="1341" 
d="M449 0h-263v762h-163v227h163v53q0 157 92 250.5t242 93.5q173 0 258 -92l-98 -153q-41 41 -109 41q-56 0 -89 -36.5t-33 -103.5v-53h200v-227h-200v-762zM1118 0h-262v762h-164v227h164v53q0 157 92 250.5t242 93.5q173 0 258 -92l-98 -153q-41 41 -109 41
q-56 0 -89.5 -36.5t-33.5 -103.5v-53h201v-227h-201v-762z" />
    <glyph glyph-name="fi" unicode="fi" horiz-adv-x="1187" 
d="M449 0h-263v762h-163v227h163v53q0 159 92.5 251.5t241.5 92.5q114 0 189 -40l-54 -189q-36 25 -84 25q-56 0 -89 -36.5t-33 -103.5v-53h200v-227h-200v-762zM928 1096q-63 0 -109.5 45.5t-46.5 109.5t46 109t110 45q65 0 110 -45t45 -109q0 -65 -45.5 -110t-109.5 -45z
M1059 0h-260v989h260v-989z" />
    <glyph glyph-name="fl" unicode="fl" horiz-adv-x="1187" 
d="M449 0h-263v762h-163v227h163v53q0 159 92.5 251.5t241.5 92.5q114 0 189 -40l-54 -189q-36 25 -84 25q-56 0 -89 -36.5t-33 -103.5v-53h200v-227h-200v-762zM1059 0h-260v1366h260v-1366z" />
    <glyph glyph-name="f_f_i" unicode="ffi" horiz-adv-x="1857" 
d="M1118 0h-262v762h-164v227h164v53q0 159 92.5 251.5t241.5 92.5q113 0 188 -40l-53 -189q-36 25 -84 25q-56 0 -89.5 -37t-33.5 -103v-53h201v-227h-201v-762zM1599 1096q-63 0 -109 45.5t-46 109.5t46 109t109 45q65 0 110.5 -45t45.5 -109t-45.5 -109.5t-110.5 -45.5z
M1731 0h-261v989h261v-989zM449 0h-263v762h-163v227h163v53q0 157 92 250.5t242 93.5q173 0 258 -92l-98 -153q-41 41 -109 41q-56 0 -89 -36.5t-33 -103.5v-53h200v-227h-200v-762z" />
    <glyph glyph-name="f_f_l" unicode="ffl" horiz-adv-x="1857" 
d="M1118 0h-262v762h-164v227h164v53q0 159 92.5 251.5t241.5 92.5q113 0 188 -40l-53 -189q-36 25 -84 25q-56 0 -89.5 -37t-33.5 -103v-53h201v-227h-201v-762zM1731 0h-261v1366h261v-1366zM449 0h-263v762h-163v227h163v53q0 157 92 250.5t242 93.5q173 0 258 -92
l-98 -153q-41 41 -109 41q-56 0 -89 -36.5t-33 -103.5v-53h200v-227h-200v-762z" />
    <glyph glyph-name="f_b" unicode="fb" horiz-adv-x="1867" 
d="M449 0h-263v762h-163v227h163v53q0 159 92.5 251.5t241.5 92.5q114 0 189 -40l-54 -189q-36 25 -84 25q-56 0 -89 -36.5t-33 -103.5v-53h200v-227h-200v-762zM1059 317q32 -47 96 -78.5t127 -31.5q114 0 183 79t69 208t-69 208.5t-183 79.5q-63 0 -127 -32.5t-96 -81.5
v-351zM1059 0h-260v1366h260v-504q58 74 137 113t168 39q193 0 315.5 -140.5t122.5 -379.5q0 -242 -122.5 -380.5t-315.5 -138.5q-184 0 -305 152v-127z" />
    <glyph glyph-name="f_h" unicode="fh" horiz-adv-x="1857" 
d="M449 0h-263v762h-163v227h163v53q0 159 92.5 251.5t241.5 92.5q114 0 189 -40l-54 -189q-36 25 -84 25q-56 0 -89 -36.5t-33 -103.5v-53h200v-227h-200v-762zM1729 0h-261v602q0 98 -47 139t-137 41q-70 0 -128.5 -33.5t-96.5 -82.5v-666h-260v1366h260v-506
q53 64 144 109t204 45q160 0 241 -82t81 -230v-702z" />
    <glyph glyph-name="f_k" unicode="fk" horiz-adv-x="1767" 
d="M449 0h-263v762h-163v227h163v53q0 159 92.5 251.5t241.5 92.5q114 0 189 -40l-54 -189q-36 25 -84 25q-56 0 -89 -36.5t-33 -103.5v-53h200v-227h-200v-762zM1765 0h-325l-262 381l-119 -127v-254h-260v1366h260v-817l375 440h319l-391 -448z" />
    <glyph glyph-name=".notdef" horiz-adv-x="989" 
d="M854 -184h-719v1724h719v-1724zM788 -123v1602h-589v-1602h589z" />
    <glyph glyph-name=".null" horiz-adv-x="0" 
 />
    <glyph glyph-name=".null" horiz-adv-x="0" 
 />
    <glyph glyph-name="nonmarkingreturn" horiz-adv-x="682" 
 />
    <glyph glyph-name="CR" unicode="&#xd;" horiz-adv-x="0" 
 />
    <glyph glyph-name="space" unicode=" " horiz-adv-x="524" 
 />
    <glyph glyph-name="exclam" unicode="!" horiz-adv-x="524" 
d="M377 444h-230l-43 922h314zM262 -20q-67 0 -115.5 48.5t-48.5 114.5q0 68 48.5 117t115.5 49q68 0 117 -49.5t49 -116.5q0 -66 -49.5 -114.5t-116.5 -48.5z" />
    <glyph glyph-name="quotedbl" unicode="&#x22;" horiz-adv-x="831" 
d="M289 768h-115q-84 438 -84 477q0 59 41 100t100 41q57 0 99.5 -41.5t42.5 -99.5q0 -17 -21 -136.5t-42 -230.5zM657 768h-112q-84 438 -84 477q0 59 41.5 100t99.5 41t98.5 -41t40.5 -100q0 -17 -21 -136.5t-42 -230.5z" />
    <glyph glyph-name="numbersign" unicode="#" horiz-adv-x="1265" 
d="M694 0h-194l118 346h-194l-117 -346h-192l116 346h-196l53 166h201l110 340h-200l51 164h207l114 350h193l-115 -350h193l114 350h195l-119 -350h199l-49 -164h-205l-113 -340h207l-51 -166h-211zM672 512l112 340h-192l-111 -340h191z" />
    <glyph glyph-name="dollar" unicode="$" horiz-adv-x="1257" 
d="M545 -205v185q-299 25 -484 213l158 221q134 -142 326 -176v323q-52 13 -91 24.5t-88 31t-84 40.5t-70.5 52t-57.5 68t-36 86.5t-14 107.5q0 159 119 274.5t322 136.5v191h194v-195q243 -26 416 -182l-162 -213q-104 95 -254 133v-289q52 -13 91.5 -25t88.5 -31.5
t85 -40.5t72 -53t59 -68.5t37 -86.5t14 -108q0 -176 -114.5 -292.5t-332.5 -139.5v-187h-194zM891 381q0 47 -38.5 76.5t-113.5 54.5v-274q72 14 112 54t40 89zM401 995q0 -42 37 -69t107 -47v249q-68 -9 -106 -44.5t-38 -88.5z" />
    <glyph glyph-name="percent" unicode="%" horiz-adv-x="1550" 
d="M399 707q-155 0 -250.5 95t-95.5 240q0 147 96 245.5t250 98.5q156 0 252.5 -98.5t96.5 -245.5q0 -145 -96.5 -240t-252.5 -95zM420 0h-154l873 1366h155zM1151 -25q-154 0 -250 96.5t-96 241.5q0 147 96 245.5t250 98.5t251 -98.5t97 -245.5q0 -145 -97 -241.5
t-251 -96.5zM399 866q71 0 116.5 48.5t45.5 127.5q0 85 -45 134t-117 49q-71 0 -116 -49.5t-45 -133.5q0 -79 45.5 -127.5t115.5 -48.5zM1151 135q72 0 118 48t46 130q0 83 -46 133t-118 50t-117 -49.5t-45 -133.5q0 -82 45 -130t117 -48z" />
    <glyph glyph-name="ampersand" unicode="&#x26;" horiz-adv-x="1323" 
d="M1307 0h-332q-52 49 -103 102q-166 -127 -372 -127q-197 0 -324 103t-127 293q0 75 23 137t66 109t91.5 81t112.5 66q-90 170 -90 295q0 139 111 233t280 94q151 0 254.5 -78t103.5 -210q0 -51 -12.5 -94.5t-38 -79t-53 -63t-71 -54t-76.5 -44t-84 -40.5q57 -77 118 -148
q23 -29 64.5 -78.5t50.5 -60.5q82 127 125 264l209 -96q-85 -188 -191 -330q123 -132 265 -274zM537 180q100 0 196 70q-107 119 -151 174q-74 91 -138 180q-118 -84 -118 -209q0 -97 61.5 -156t149.5 -59zM512 1053q0 -74 59 -185q99 48 152 97t53 118q0 53 -34.5 84
t-86.5 31q-61 0 -102 -41t-41 -104z" />
    <glyph glyph-name="quotesingle" unicode="'" horiz-adv-x="460" 
d="M289 768h-115q-84 438 -84 477q0 59 41 100t100 41q57 0 99.5 -41.5t42.5 -99.5q0 -17 -21 -136.5t-42 -230.5z" />
    <glyph glyph-name="parenleft" unicode="(" horiz-adv-x="608" 
d="M571 -281l-163 -127q-149 167 -236.5 412.5t-87.5 493.5t87.5 492t236.5 413l163 -123q-107 -194 -156.5 -376.5t-49.5 -405.5q0 -224 50 -406t156 -373z" />
    <glyph glyph-name="parenright" unicode=")" horiz-adv-x="608" 
d="M199 -408l-164 127q108 189 158.5 371.5t50.5 407.5t-50 407t-159 375l164 123q151 -169 239 -413t88 -492t-88.5 -493.5t-238.5 -412.5z" />
    <glyph glyph-name="asterisk" unicode="*" horiz-adv-x="718" 
d="M424 750h-129l10 225l-190 -121l-64 111l199 102l-199 102l64 113l190 -121l-10 225h129l-10 -225l188 121l66 -113l-199 -102l199 -102l-66 -111l-188 121z" />
    <glyph glyph-name="plus" unicode="+" horiz-adv-x="1032" 
d="M973 610h-367v-415h-178v415h-369v162h369v399h178v-399h367v-162z" />
    <glyph glyph-name="comma" unicode="," horiz-adv-x="524" 
d="M440 100q0 -112 -57 -211.5t-154 -169.5l-112 93q51 27 98 83.5t59 108.5q-18 -6 -38 -6q-60 0 -100 41t-40 106q0 67 47.5 115.5t112.5 48.5q76 0 130 -56.5t54 -152.5z" />
    <glyph glyph-name="hyphen" unicode="-" horiz-adv-x="614" 
d="M553 385h-492v221h492v-221z" />
    <glyph glyph-name="period" unicode="." horiz-adv-x="524" 
d="M262 -23q-68 0 -117 49.5t-49 116.5t49 116.5t117 49.5t117 -49.5t49 -116.5t-49 -116.5t-117 -49.5z" />
    <glyph glyph-name="slash" unicode="/" horiz-adv-x="673" 
d="M188 -41h-188l485 1448h189z" />
    <glyph glyph-name="zero" unicode="0" horiz-adv-x="1269" 
d="M635 -25q-141 0 -252 60.5t-178 162t-101 225t-34 259.5t34 259t101 224t178 161t252 60t251.5 -60t177.5 -161t101.5 -224t34.5 -259q0 -108 -21 -209t-66.5 -192t-110.5 -158.5t-159.5 -107.5t-207.5 -40zM635 233q94 0 155.5 61t87 158.5t25.5 229.5q0 98 -15 176.5
t-45.5 140.5t-83.5 95.5t-124 33.5q-72 0 -125 -33.5t-84 -95.5t-46 -140.5t-15 -176.5t15 -177t46 -141.5t84 -96.5t125 -34z" />
    <glyph glyph-name="one" unicode="1" horiz-adv-x="841" 
d="M707 0h-291v991l-228 -231l-165 174l430 432h254v-1366z" />
    <glyph glyph-name="two" unicode="2" horiz-adv-x="1228" 
d="M1124 0h-1028v227q183 136 292 220t202 163.5t137.5 133.5t68 104.5t23.5 101.5q0 85 -65 131.5t-156 46.5q-217 0 -367 -157l-165 192q96 111 236 167t290 56q146 0 264 -51.5t188 -152t70 -232.5q0 -167 -132.5 -328t-414.5 -366h557v-256z" />
    <glyph glyph-name="three" unicode="3" horiz-adv-x="1202" 
d="M580 -25q-180 0 -319.5 61t-219.5 159l152 194q69 -72 172 -114t204 -42q122 0 190 48.5t68 126.5q0 82 -65.5 119.5t-208.5 37.5q-130 0 -170 -4v262q25 -2 170 -2q118 0 185 36.5t67 109.5q0 79 -70.5 120t-183.5 41q-199 0 -346 -141l-146 182q193 217 523 217
q239 0 377.5 -99.5t138.5 -270.5q0 -122 -88 -205.5t-211 -105.5q54 -5 108.5 -28.5t102.5 -63t78 -101.5t30 -135q0 -179 -147 -290.5t-391 -111.5z" />
    <glyph glyph-name="four" unicode="4" horiz-adv-x="1222" 
d="M995 0h-290v283h-654v229l543 854h401v-827h176v-256h-176v-283zM705 539v569l-369 -569h369z" />
    <glyph glyph-name="five" unicode="5" horiz-adv-x="1245" 
d="M627 -25q-338 0 -527 205l162 203q144 -150 363 -150q118 0 186 58t68 145q0 92 -65.5 147.5t-180.5 55.5q-170 0 -287 -111l-203 54v784h938v-256h-647v-334q52 52 131 83.5t170 31.5q117 0 216 -52t161 -154.5t62 -235.5q0 -217 -149 -345.5t-398 -128.5z" />
    <glyph glyph-name="six" unicode="6" horiz-adv-x="1245" 
d="M659 -25q-151 0 -266.5 55.5t-184.5 153.5t-103.5 223t-34.5 273q0 208 74.5 366.5t219.5 249t343 90.5q238 0 403 -141l-131 -223q-58 55 -121 80.5t-151 25.5q-149 0 -245.5 -111t-96.5 -276q0 -18 2 -28q50 73 146.5 124.5t203.5 51.5q126 0 230 -49.5t169.5 -152.5
t65.5 -243q0 -202 -146 -335.5t-377 -133.5zM643 233q112 0 178 61.5t66 139.5q0 101 -73.5 153t-180.5 52q-77 0 -147 -34t-119 -95q5 -52 22 -99t48.5 -88t84.5 -65.5t121 -24.5z" />
    <glyph glyph-name="seven" unicode="7" horiz-adv-x="1116" 
d="M567 0h-319l489 1110h-688v256h1026v-203z" />
    <glyph glyph-name="eight" unicode="8" horiz-adv-x="1241" 
d="M621 -25q-87 0 -167 14.5t-150 45.5t-121.5 75t-81 106.5t-29.5 137.5q0 120 82 213t211 138q-271 94 -271 321q0 92 46 163.5t123 113t168 62.5t190 21q98 0 189 -21t168 -62.5t123 -113t46 -163.5q0 -226 -273 -321q129 -45 212 -138t83 -213q0 -122 -78.5 -210
t-200 -128.5t-269.5 -40.5zM621 819q35 5 71.5 16.5t73.5 30.5t60.5 49t23.5 66q0 72 -63.5 114t-165.5 42q-103 0 -167.5 -42t-64.5 -114q0 -36 24 -66t61.5 -49t74 -30.5t72.5 -16.5zM621 225q107 0 180 46.5t73 119.5q0 41 -27 75t-69 55t-81.5 34t-75.5 18
q-37 -5 -77 -18t-81.5 -34t-68.5 -55t-27 -75q0 -74 72.5 -120t181.5 -46z" />
    <glyph glyph-name="nine" unicode="9" horiz-adv-x="1245" 
d="M539 -23q-243 0 -402 142l129 223q58 -54 121.5 -80t151.5 -26q108 0 187.5 56t117 142t37.5 187v30q-53 -74 -149.5 -125t-203.5 -51q-126 0 -230.5 49.5t-170.5 152.5t-66 243q0 202 147 335.5t378 133.5q121 0 219.5 -36.5t166.5 -100.5t114 -154t67 -194t21 -222
q0 -207 -74 -365.5t-219 -249t-342 -90.5zM610 725q77 0 148.5 33.5t120.5 93.5q-5 52 -22 99t-49 88.5t-85.5 66t-122.5 24.5q-110 0 -176 -61.5t-66 -138.5q0 -68 37.5 -116t92.5 -68.5t122 -20.5z" />
    <glyph glyph-name="colon" unicode=":" horiz-adv-x="514" 
d="M262 672q-68 0 -117 49t-49 117t49 117t117 49t117 -49t49 -117t-49 -117t-117 -49zM262 -23q-68 0 -117 49.5t-49 116.5t49 116.5t117 49.5t117 -49.5t49 -116.5t-49 -116.5t-117 -49.5z" />
    <glyph glyph-name="semicolon" unicode=";" horiz-adv-x="524" 
d="M262 672q-67 0 -116.5 50t-49.5 116q0 68 49 117t117 49t117 -49t49 -117q0 -66 -49.5 -116t-116.5 -50zM440 104q0 -112 -57 -211t-154 -169l-112 92q52 29 98.5 85.5t58.5 108.5q-24 -8 -38 -8q-59 0 -99.5 42.5t-40.5 107.5q0 67 47.5 114t112.5 47q76 0 130 -56.5
t54 -152.5z" />
    <glyph glyph-name="less" unicode="&#x3c;" horiz-adv-x="1032" 
d="M973 184l-914 408v186l914 410v-193l-727 -311l727 -307v-193z" />
    <glyph glyph-name="equal" unicode="=" horiz-adv-x="1032" 
d="M973 795h-914v163h914v-163zM973 412h-914v159h914v-159z" />
    <glyph glyph-name="greater" unicode="&#x3e;" horiz-adv-x="1032" 
d="M973 592l-914 -408v193l727 307l-727 311v193l914 -410v-186z" />
    <glyph glyph-name="question" unicode="?" horiz-adv-x="933" 
d="M365 418q-68 74 -68 180q0 50 16.5 92t43 72t58 56.5t63.5 48.5t58.5 43.5t43 47.5t16.5 54q0 51 -40 83.5t-120 32.5q-147 0 -252 -127l-166 187q81 95 198.5 146.5t250.5 51.5q196 0 311 -89.5t115 -233.5q0 -61 -19 -112t-49 -87t-66.5 -66.5t-73 -56.5t-66.5 -51
t-49 -55.5t-19 -65.5q0 -53 37 -86zM463 -23q-67 0 -116.5 49.5t-49.5 116.5t49.5 116.5t116.5 49.5t116.5 -49.5t49.5 -116.5t-49.5 -116.5t-116.5 -49.5z" />
    <glyph glyph-name="at" unicode="@" horiz-adv-x="1603" 
d="M721 -143q-183 0 -332 85t-233 232t-84 326q0 160 67.5 309.5t178.5 258t260.5 174t306.5 65.5q190 0 339 -86t227.5 -228.5t78.5 -312.5q0 -123 -38 -223t-98.5 -160t-130.5 -91.5t-139 -31.5q-87 0 -137.5 44t-60.5 108l-2 12q-54 -76 -133 -120t-162 -44
q-147 0 -232.5 96t-85.5 248q0 133 66 250t172.5 184.5t224.5 67.5q89 0 155.5 -38t100.5 -99l23 108h231l-104 -499q-6 -36 -6 -50q0 -45 20.5 -68.5t54.5 -23.5q32 0 64.5 19.5t62 57.5t48 104t18.5 149q0 245 -154.5 396t-410.5 151q-142 0 -276 -59.5t-232 -158
t-157.5 -231.5t-59.5 -274q0 -159 74.5 -289.5t207 -205.5t295.5 -75q196 0 375 113l43 -61q-200 -129 -426 -129zM719 358q128 0 227 134l51 239q-21 42 -63 73.5t-103 31.5q-119 0 -200.5 -90t-81.5 -207q0 -80 46.5 -130.5t123.5 -50.5z" />
    <glyph glyph-name="A" unicode="A" horiz-adv-x="1400" 
d="M1409 0h-332l-84 231h-585l-86 -231h-332l528 1366h365zM913 487l-213 588l-213 -588h426z" />
    <glyph glyph-name="B" unicode="B" horiz-adv-x="1357" 
d="M877 0h-742v1366h719q94 0 170.5 -28.5t124 -77.5t73 -111t25.5 -131q0 -124 -67 -208t-168 -105q110 -17 186 -113t76 -223q0 -161 -104.5 -265t-292.5 -104zM791 819q73 0 116 41.5t43 106.5q0 66 -43.5 107.5t-115.5 41.5h-365v-297h365zM801 252q83 0 129.5 42
t46.5 116q0 68 -46.5 113.5t-129.5 45.5h-375v-317h375z" />
    <glyph glyph-name="C" unicode="C" horiz-adv-x="1406" 
d="M797 -25q-152 0 -286 52t-231.5 143.5t-153.5 224t-56 287.5t56 287.5t153.5 224t231.5 143.5t286 52q108 0 201.5 -27.5t162 -76.5t118.5 -105.5t89 -124.5l-250 -123q-44 86 -131 142t-190 56q-186 0 -307 -127t-121 -321t121 -321.5t307 -127.5q103 0 190 56t131 143
l250 -121q-194 -336 -571 -336z" />
    <glyph glyph-name="D" unicode="D" horiz-adv-x="1470" 
d="M674 0h-539v1366h539q212 0 377 -84.5t256.5 -240.5t91.5 -359t-91.5 -358.5t-256.5 -239.5t-377 -84zM674 256q196 0 312 123t116 303q0 189 -112 308.5t-316 119.5h-248v-854h248z" />
    <glyph glyph-name="E" unicode="E" horiz-adv-x="1193" 
d="M1102 0h-967v1366h967v-256h-676v-289h661v-256h-661v-309h676v-256z" />
    <glyph glyph-name="F" unicode="F" horiz-adv-x="1169" 
d="M426 0h-291v1366h967v-256h-676v-289h661v-256h-661v-565z" />
    <glyph glyph-name="G" unicode="G" horiz-adv-x="1474" 
d="M797 -27q-149 0 -282 51t-231.5 141.5t-156 224.5t-57.5 292q0 210 99 373t263.5 248.5t364.5 85.5q199 0 339 -85t226 -221l-242 -131q-49 77 -134.5 127.5t-188.5 50.5q-186 0 -307 -127t-121 -321t121 -321.5t307 -127.5q85 0 164.5 31.5t125.5 73.5v164h-360v254h651
v-525q-230 -258 -581 -258z" />
    <glyph glyph-name="H" unicode="H" horiz-adv-x="1497" 
d="M1364 0h-293v573h-645v-573h-291v1366h291v-537h645v537h293v-1366z" />
    <glyph glyph-name="I" unicode="I" horiz-adv-x="561" 
d="M426 0h-291v1366h291v-1366z" />
    <glyph glyph-name="J" unicode="J" horiz-adv-x="995" 
d="M379 -25q-230 0 -367 134l127 223q103 -99 217 -99q97 0 155 60t58 160v913h291v-917q0 -158 -62.5 -266t-168.5 -158t-250 -50z" />
    <glyph glyph-name="K" unicode="K" horiz-adv-x="1302" 
d="M1305 0h-359l-414 547l-106 -127v-420h-291v1366h291v-610l483 610h359l-543 -641z" />
    <glyph glyph-name="L" unicode="L" horiz-adv-x="1071" 
d="M1004 0h-869v1366h291v-1110h578v-256z" />
    <glyph glyph-name="M" unicode="M" horiz-adv-x="1751" 
d="M1616 0h-293v956l-385 -956h-127l-385 956v-956h-291v1366h408l331 -825l332 825h410v-1366z" />
    <glyph glyph-name="N" unicode="N" horiz-adv-x="1492" 
d="M1358 0h-281l-651 891v-891h-291v1366h299l633 -858v858h291v-1366z" />
    <glyph glyph-name="O" unicode="O" horiz-adv-x="1566" 
d="M782 -25q-152 0 -284.5 53t-226.5 145.5t-147.5 224.5t-53.5 284t53.5 284t147.5 224.5t226.5 145.5t284.5 53q205 0 368 -90t255 -252t92 -365t-92 -365t-255 -252t-368 -90zM782 233q186 0 301 127.5t115 321.5q0 195 -115 321.5t-301 126.5t-299.5 -126.5
t-113.5 -321.5q0 -194 113.5 -321.5t299.5 -127.5z" />
    <glyph glyph-name="P" unicode="P" horiz-adv-x="1277" 
d="M426 0h-291v1366h639q108 0 196.5 -35t145 -95t87 -139.5t30.5 -170.5q0 -90 -30.5 -169.5t-87.5 -140t-145 -96t-196 -35.5h-348v-485zM735 741q88 0 144.5 51t56.5 134q0 85 -56.5 134.5t-144.5 49.5h-309v-369h309z" />
    <glyph glyph-name="Q" unicode="Q" horiz-adv-x="1566" 
d="M782 -25q-152 0 -284.5 53t-226.5 145.5t-147.5 224.5t-53.5 284t53.5 284t147.5 224.5t226.5 145.5t284.5 53q205 0 368 -90t255 -252t92 -365q0 -289 -178 -483l100 -117l-202 -166l-111 127q-152 -68 -324 -68zM782 233q70 0 144 23l-150 176l201 166l151 -178
q70 115 70 262q0 195 -115 321.5t-301 126.5t-299.5 -126.5t-113.5 -321.5q0 -194 113.5 -321.5t299.5 -127.5z" />
    <glyph glyph-name="R" unicode="R" horiz-adv-x="1316" 
d="M1241 0h-334l-268 485h-213v-485h-291v1366h639q210 0 334.5 -123t124.5 -317q0 -87 -25.5 -160t-69 -121.5t-95 -79.5t-109.5 -45zM731 741q90 0 147.5 50t57.5 135t-57.5 134.5t-147.5 49.5h-305v-369h305z" />
    <glyph glyph-name="S" unicode="S" horiz-adv-x="1228" 
d="M621 -25q-363 0 -578 218l158 221q79 -82 190 -133.5t244 -51.5q114 0 175.5 44.5t61.5 107.5q0 38 -27 66.5t-72.5 46.5t-104.5 33t-124 30.5t-130 35t-124 51t-104.5 73.5t-72.5 107t-27 147q0 176 141.5 295.5t376.5 119.5q328 0 533 -190l-162 -213q-81 74 -185 112
t-212 38q-92 0 -143.5 -37.5t-51.5 -100.5q0 -38 33.5 -66.5t89 -44t126 -34t143.5 -36t143.5 -50t126 -75t89 -113.5t33.5 -162q0 -196 -139.5 -317.5t-406.5 -121.5z" />
    <glyph glyph-name="T" unicode="T" horiz-adv-x="1191" 
d="M743 0h-292v1110h-400v256h1090v-256h-398v-1110z" />
    <glyph glyph-name="U" unicode="U" horiz-adv-x="1501" 
d="M752 -25q-153 0 -271.5 41.5t-193.5 117.5t-113.5 180t-38.5 231v821h295v-811q0 -146 83.5 -234t238.5 -88q154 0 236.5 87.5t82.5 234.5v811h297v-819q0 -264 -156.5 -418t-459.5 -154z" />
    <glyph glyph-name="V" unicode="V" horiz-adv-x="1400" 
d="M883 0h-365l-528 1366h332l378 -1051l377 1051h332z" />
    <glyph glyph-name="W" unicode="W" horiz-adv-x="1880" 
d="M1489 0h-309l-240 938l-238 -938h-309l-391 1366h326l239 -987l260 987h228l258 -987l237 987h328z" />
    <glyph glyph-name="X" unicode="X" horiz-adv-x="1368" 
d="M1374 0h-348l-342 500l-344 -500h-346l495 700l-464 666h346l313 -467l309 467h350l-464 -664z" />
    <glyph glyph-name="Y" unicode="Y" horiz-adv-x="1320" 
d="M807 0h-291v559l-526 807h332l340 -549l335 549h332l-522 -807v-559z" />
    <glyph glyph-name="Z" unicode="Z" horiz-adv-x="1212" 
d="M1126 0h-1040v236l645 874h-645v256h1026v-233l-645 -877h659v-256z" />
    <glyph glyph-name="bracketleft" unicode="[" horiz-adv-x="573" 
d="M539 -389h-443v1778h443v-175h-256v-1429h256v-174z" />
    <glyph glyph-name="backslash" unicode="\" horiz-adv-x="673" 
d="M485 -41l-485 1448h188l486 -1448h-189z" />
    <glyph glyph-name="bracketright" unicode="]" horiz-adv-x="573" 
d="M477 -389h-442v174h256v1429h-256v175h442v-1778z" />
    <glyph glyph-name="asciicircum" unicode="^" horiz-adv-x="903" 
d="M864 682h-192l-221 506l-220 -506h-192l319 684h191z" />
    <glyph glyph-name="underscore" unicode="_" horiz-adv-x="1155" 
d="M1161 -256h-1167v174h1167v-174z" />
    <glyph glyph-name="grave" unicode="`" horiz-adv-x="514" 
d="M514 1139h-182l-332 295h238z" />
    <glyph glyph-name="a" unicode="a" horiz-adv-x="1112" 
d="M983 0h-260v102q-51 -60 -133.5 -93.5t-179.5 -33.5q-61 0 -120.5 21t-110.5 60t-82 103.5t-31 143.5q0 67 20.5 122t55 91t79.5 60.5t92.5 35.5t96.5 11q99 0 181.5 -31.5t131.5 -89.5v133q0 75 -59.5 120.5t-157.5 45.5q-163 0 -289 -117l-98 174q178 156 432 156
q89 0 163 -19t136.5 -61t97.5 -117t35 -178v-639zM514 152q65 0 121.5 22t87.5 64v122q-31 42 -87.5 64t-121.5 22q-80 0 -133 -39.5t-53 -109.5q0 -67 53.5 -106t132.5 -39z" />
    <glyph glyph-name="b" unicode="b" horiz-adv-x="1200" 
d="M389 317q32 -47 96 -78.5t127 -31.5q114 0 183 79t69 208t-69 208.5t-183 79.5q-63 0 -127 -32.5t-96 -81.5v-351zM389 0h-260v1366h260v-504q58 74 137 113t168 39q193 0 316 -140.5t123 -379.5q0 -241 -123 -380t-316 -139q-184 0 -305 152v-127z" />
    <glyph glyph-name="c" unicode="c" horiz-adv-x="1021" 
d="M590 -25q-229 0 -376.5 146.5t-147.5 374.5q0 227 147.5 372.5t376.5 145.5q260 0 391 -178l-170 -160q-71 106 -209 106q-119 0 -193.5 -79t-74.5 -207q0 -129 74.5 -209t193.5 -80q134 0 209 106l170 -157q-57 -79 -154 -130t-237 -51z" />
    <glyph glyph-name="d" unicode="d" horiz-adv-x="1200" 
d="M1071 0h-262v127q-121 -152 -305 -152q-193 0 -315.5 138.5t-122.5 380.5q0 239 122.5 379.5t315.5 140.5q89 0 168 -39t137 -113v504h262v-1366zM584 207q66 0 129.5 31.5t95.5 80.5v351q-32 49 -95.5 80.5t-129.5 31.5q-111 0 -180.5 -79.5t-69.5 -208.5
q0 -127 70 -207t180 -80z" />
    <glyph glyph-name="e" unicode="e" horiz-adv-x="1132" 
d="M594 -25q-229 0 -378.5 143.5t-149.5 377.5q0 143 64.5 261t182.5 187.5t265 69.5q221 0 358 -151t137 -394v-57h-735q13 -99 88.5 -164.5t196.5 -65.5q66 0 142 27.5t122 71.5l114 -168q-72 -66 -180.5 -102t-226.5 -36zM821 588q-2 38 -16.5 74.5t-42 70t-75.5 54
t-109 20.5q-58 0 -104.5 -20t-74.5 -53t-44 -70t-21 -76h487z" />
    <glyph glyph-name="f" unicode="f" horiz-adv-x="669" 
d="M449 0h-263v762h-163v227h163v53q0 157 92 250.5t242 93.5q173 0 258 -92l-98 -153q-41 41 -109 41q-56 0 -89 -36.5t-33 -103.5v-53h200v-227h-200v-762z" />
    <glyph glyph-name="g" unicode="g" horiz-adv-x="1198" 
d="M535 -401q-132 0 -233.5 33.5t-192.5 113.5l116 188q111 -122 310 -122q51 0 96 12t86 39t65.5 77.5t24.5 120.5v101q-124 -156 -305 -156q-193 0 -314.5 132t-121.5 372q0 237 121.5 370.5t314.5 133.5q183 0 305 -152v127h262v-921q0 -109 -32.5 -193t-84.5 -135
t-124 -84t-143 -45t-150 -12zM584 238q64 0 127 32t96 80v320q-32 49 -95 80.5t-128 31.5q-112 0 -181 -73t-69 -199t69 -199t181 -73z" />
    <glyph glyph-name="h" unicode="h" horiz-adv-x="1187" 
d="M1059 0h-260v602q0 98 -47.5 139t-137.5 41q-70 0 -128.5 -33.5t-96.5 -82.5v-666h-260v1366h260v-506q53 64 144 109t204 45q160 0 241 -82t81 -230v-702z" />
    <glyph glyph-name="i" unicode="i" horiz-adv-x="518" 
d="M258 1096q-63 0 -109.5 45.5t-46.5 109.5t46 109t110 45q65 0 110.5 -45t45.5 -109t-45.5 -109.5t-110.5 -45.5zM389 0h-260v989h260v-989z" />
    <glyph glyph-name="j" unicode="j" horiz-adv-x="518" 
d="M258 1096q-63 0 -109.5 45.5t-46.5 109.5t46 109t110 45q65 0 110.5 -45t45.5 -109t-45.5 -109.5t-110.5 -45.5zM37 -401q-90 0 -140.5 15t-107.5 54l72 195q60 -51 133 -51q62 0 98.5 40.5t36.5 120.5v1016h260v-1016q0 -174 -89 -274t-263 -100z" />
    <glyph glyph-name="k" unicode="k" horiz-adv-x="1095" 
d="M1096 0h-326l-262 381l-119 -127v-254h-260v1366h260v-817l375 440h319l-391 -448z" />
    <glyph glyph-name="l" unicode="l" horiz-adv-x="518" 
d="M389 0h-260v1366h260v-1366z" />
    <glyph glyph-name="m" unicode="m" horiz-adv-x="1744" 
d="M1618 0h-262v625q0 73 -36 115t-112 42q-63 0 -117.5 -34t-86.5 -80v-668h-263v625q0 157 -147 157q-62 0 -117 -34.5t-88 -81.5v-666h-260v989h260v-129q37 54 129 104t195 50q107 0 176.5 -47t97.5 -133q46 73 139.5 126.5t200.5 53.5q139 0 215 -75t76 -224v-715z" />
    <glyph glyph-name="n" unicode="n" 
d="M1057 0h-260v598q0 98 -47.5 141t-135.5 43q-71 0 -130 -33.5t-95 -82.5v-666h-260v989h260v-129q54 65 144 109.5t202 44.5q159 0 240.5 -83.5t81.5 -232.5v-698z" />
    <glyph glyph-name="o" unicode="o" horiz-adv-x="1175" 
d="M588 -25q-158 0 -278.5 71.5t-182 189t-61.5 260.5q0 142 61.5 258.5t182 188t278.5 71.5q159 0 280 -71.5t182.5 -188t61.5 -258.5q0 -106 -36.5 -200.5t-102 -166t-165.5 -113t-220 -41.5zM588 207q117 0 185.5 83.5t68.5 205.5q0 121 -68.5 203.5t-185.5 82.5
t-184.5 -82.5t-67.5 -203.5q0 -122 67.5 -205.5t184.5 -83.5z" />
    <glyph glyph-name="p" unicode="p" horiz-adv-x="1193" 
d="M694 -25q-186 0 -305 152v-504h-260v1366h260v-125q119 150 305 150q195 0 317 -138t122 -380t-122 -381.5t-317 -139.5zM612 207q112 0 181 80t69 209q0 128 -69 207t-181 79q-63 0 -127 -32.5t-96 -79.5v-351q33 -47 97 -79.5t126 -32.5z" />
    <glyph glyph-name="q" unicode="q" horiz-adv-x="1193" 
d="M582 207q62 0 126 32.5t97 79.5v351q-32 47 -96 79.5t-127 32.5q-111 0 -180.5 -79.5t-69.5 -206.5q0 -129 69.5 -209t180.5 -80zM500 -25q-195 0 -317 139.5t-122 381.5t122 380t317 138q186 0 305 -150v125h262v-1366h-262v504q-119 -152 -305 -152z" />
    <glyph glyph-name="r" unicode="r" horiz-adv-x="737" 
d="M389 0h-260v989h260v-135q55 69 141 114.5t175 45.5v-254q-27 6 -72 6q-66 0 -139 -33.5t-105 -79.5v-653z" />
    <glyph glyph-name="s" unicode="s" horiz-adv-x="976" 
d="M485 -25q-129 0 -246.5 41t-195.5 113l113 182q57 -54 155.5 -94.5t186.5 -40.5q82 0 124 29.5t42 77.5q0 33 -32.5 54t-84.5 33t-114.5 23.5t-125 32t-114.5 51.5t-84.5 88.5t-32.5 136.5q0 131 109 221.5t296 90.5q230 0 400 -135l-105 -179q-46 49 -126 82t-167 33
q-69 0 -112 -28t-43 -70q0 -29 32.5 -48t84 -31t113.5 -23.5t124.5 -33.5t114 -54.5t84 -92.5t32.5 -141q0 -139 -114 -228.5t-314 -89.5z" />
    <glyph glyph-name="t" unicode="t" horiz-adv-x="692" 
d="M461 -25q-137 0 -209 69.5t-72 201.5v516h-164v227h164v271h262v-271h201v-227h-201v-447q0 -47 24 -77.5t66 -30.5q28 0 54 9t37 20l55 -197q-71 -64 -217 -64z" />
    <glyph glyph-name="u" unicode="u" 
d="M1057 0h-260v125q-58 -65 -146.5 -107.5t-201.5 -42.5q-159 0 -239.5 82t-80.5 230v702h260v-600q0 -98 47 -140t135 -42q70 0 129 32t97 80v670h260v-989z" />
    <glyph glyph-name="v" unicode="v" horiz-adv-x="1050" 
d="M666 0h-281l-397 989h278l258 -688l258 688h281z" />
    <glyph glyph-name="w" unicode="w" horiz-adv-x="1574" 
d="M1274 0h-277l-209 674l-208 -674h-279l-301 989h270l185 -665l217 665h231l217 -665l185 665h270z" />
    <glyph glyph-name="x" unicode="x" horiz-adv-x="1032" 
d="M1032 0h-291l-225 334l-227 -334h-289l350 508l-330 481h291l205 -305l203 305h291l-332 -481z" />
    <glyph glyph-name="y" unicode="y" horiz-adv-x="1050" 
d="M94 -387l39 233q37 -16 82 -16q103 0 137 72l37 84l-401 1003h278l258 -688l258 688h281l-465 -1151q-52 -131 -144 -183.5t-231 -55.5q-71 0 -129 14z" />
    <glyph glyph-name="z" unicode="z" horiz-adv-x="980" 
d="M893 0h-807v195l446 567h-446v227h799v-188l-453 -574h461v-227z" />
    <glyph glyph-name="braceleft" unicode="{" horiz-adv-x="589" 
d="M555 -389h-125q-129 0 -223 90t-94 236v352q0 60 -27.5 98.5t-79.5 38.5v147q52 0 79.5 39t27.5 99v350q0 147 94 237.5t223 90.5h125v-175h-125q-54 0 -90.5 -42t-36.5 -109v-379q0 -144 -94 -184q94 -40 94 -185v-376q0 -68 36.5 -111t90.5 -43h125v-174z" />
    <glyph glyph-name="bar" unicode="|" horiz-adv-x="442" 
d="M309 -41h-174v1448h174v-1448z" />
    <glyph glyph-name="braceright" unicode="}" horiz-adv-x="589" 
d="M35 -389v174h125q54 0 91.5 43t37.5 111v376q0 145 94 185q-94 40 -94 184v379q0 67 -37.5 109t-91.5 42h-125v175h125q129 0 223 -90.5t94 -237.5v-350q0 -60 27.5 -99t79.5 -39v-147q-52 0 -79.5 -38.5t-27.5 -98.5v-352q0 -146 -94 -236t-223 -90h-125z" />
    <glyph glyph-name="asciitilde" unicode="~" horiz-adv-x="1044" 
d="M815 1366l176 -20q-7 -83 -17 -148t-32.5 -134t-54 -115t-83 -75.5t-118.5 -29.5q-54 0 -95 20t-65 51.5t-41.5 70t-29.5 77t-24 70t-30 51.5t-43 20q-98 0 -127 -360l-178 20q7 81 17.5 146.5t33 134t54.5 114.5t83 75.5t117 29.5q74 0 123.5 -37.5t72.5 -91
t39.5 -106.5t38 -90.5t54.5 -37.5q101 0 129 365z" />
    <glyph glyph-name="nbspace" unicode="&#xa0;" horiz-adv-x="524" 
 />
    <glyph glyph-name="exclamdown" unicode="&#xa1;" horiz-adv-x="524" 
d="M104 -377l41 920h232l43 -920h-316zM96 848q0 66 48.5 115t115.5 49t116.5 -49t49.5 -115q0 -68 -49.5 -118t-116.5 -50t-115.5 50t-48.5 118z" />
    <glyph glyph-name="cent" unicode="&#xa2;" horiz-adv-x="1021" 
d="M494 -205v189q-192 29 -310 169t-118 343q0 201 118 341t310 169v151h188v-149q197 -31 299 -172l-170 -160q-52 74 -129 94v-553q75 23 129 96l170 -157q-104 -147 -299 -174v-187h-188zM334 496q0 -96 43 -167t117 -102v535q-75 -31 -117.5 -101t-42.5 -165z" />
    <glyph glyph-name="sterling" unicode="&#xa3;" horiz-adv-x="1126" 
d="M47 551v166h139q-94 129 -94 246q0 94 43.5 175t114 134.5t159.5 83.5t181 30q346 0 475 -247l-231 -135q-27 65 -83 105t-126 40q-92 0 -153.5 -53.5t-61.5 -139.5q0 -29 4.5 -54.5t18.5 -54.5t20 -41t30 -48t27 -41h295v-166h-232q0 -6 1 -19.5t1 -19.5
q0 -70 -36.5 -131t-94.5 -96q43 14 101 14q62 0 139.5 -34t126.5 -34q61 0 107 22.5t69 53.5l115 -231q-99 -103 -301 -103q-76 0 -142 22.5t-122 45t-107 22.5q-97 0 -237 -77l-99 198q101 48 162 114.5t61 141.5q0 51 -24 111h-246z" />
    <glyph glyph-name="currency" unicode="&#xa4;" horiz-adv-x="1275" 
d="M637 176q-158 0 -283 72l-149 -152l-156 152l150 149q-82 127 -82 285t82 285l-152 153l156 152l155 -156q124 70 279 70q151 0 278 -70l156 156l156 -154l-150 -149q84 -130 84 -287q0 -161 -86 -289l152 -145l-156 -152l-153 150q-121 -70 -281 -70zM637 410
q123 0 192.5 78t69.5 194q0 114 -70 192t-192 78q-120 0 -190 -78t-70 -192q0 -115 70 -193.5t190 -78.5z" />
    <glyph glyph-name="yen" unicode="&#xa5;" horiz-adv-x="1320" 
d="M807 0h-291v236h-467v159h467v164h-467v162h361l-420 645h332l340 -549l335 549h332l-418 -645h365v-162h-469v-164h469v-159h-469v-236z" />
    <glyph glyph-name="brokenbar" unicode="&#xa6;" horiz-adv-x="442" 
d="M309 -41h-174v647h174v-647zM309 760h-174v647h174v-647z" />
    <glyph glyph-name="section" unicode="&#xa7;" horiz-adv-x="991" 
d="M913 668q0 -85 -43.5 -153t-126.5 -109q170 -75 170 -252q0 -149 -119 -234.5t-309 -85.5q-261 0 -438 162l109 164q59 -59 147.5 -102.5t181.5 -43.5q82 0 130.5 31t48.5 88q0 39 -32.5 65.5t-84.5 41.5t-114.5 28.5t-125 34.5t-114.5 51.5t-84.5 87t-32.5 133.5
q0 95 59.5 161t140.5 95q-200 76 -200 259q0 128 113 212t292 84q255 0 398 -139l-103 -153q-52 52 -128.5 81t-155.5 29q-76 0 -120 -29t-44 -81q0 -35 32.5 -58t84 -36t113.5 -25t124.5 -33t114 -51.5t84 -87.5t32.5 -135zM657 618q0 109 -170 148q-89 -21 -124 -58
t-35 -94q0 -28 13 -50t30.5 -36.5t49 -26.5t56 -19t62.5 -15q61 27 89.5 62.5t28.5 88.5z" />
    <glyph glyph-name="dieresis" unicode="&#xa8;" horiz-adv-x="604" 
d="M657 1251q0 -58 -41 -98.5t-98 -40.5t-98 40.5t-41 98.5q0 57 41 97.5t98 40.5t98 -40.5t41 -97.5zM223 1251q0 -58 -40 -98.5t-97 -40.5q-58 0 -98.5 40t-40.5 99q0 57 40.5 97.5t98.5 40.5q57 0 97 -40.5t40 -97.5z" />
    <glyph glyph-name="copyright" unicode="&#xa9;" horiz-adv-x="1593" 
d="M1503 684q0 -143 -56 -274t-150 -226t-225 -151t-275 -56q-191 0 -354 95t-258 258t-95 354q0 192 95 355t258 257.5t354 94.5q144 0 275 -56t225 -150.5t150 -225.5t56 -275zM1430 684q0 128 -50.5 245.5t-135 202t-202 135t-245.5 50.5q-170 0 -316 -85t-231.5 -231
t-85.5 -317q0 -170 85.5 -316t231.5 -231.5t316 -85.5q171 0 317 85.5t231 231.5t85 316zM1049 453l63 -62q-120 -139 -305 -139q-179 0 -302.5 124t-123.5 310q0 185 123.5 307.5t302.5 122.5q187 0 303 -135l-63 -63q-40 54 -104 85t-136 31q-138 0 -235 -98t-97 -250
q0 -150 97.5 -251t234.5 -101q73 0 137.5 32t104.5 87z" />
    <glyph glyph-name="ordfeminine" unicode="&#xaa;" horiz-adv-x="788" 
d="M686 668h-188v65q-74 -82 -209 -82q-90 0 -158 56t-68 157q0 99 68 153t158 54q139 0 209 -78v82q0 51 -39 81t-103 30q-49 0 -99 -22t-89 -62l-72 123q119 102 293 102q61 0 111.5 -12.5t93.5 -40.5t67.5 -79.5t24.5 -123.5v-403zM367 768q39 0 75 16t56 43v74
q-20 26 -56 40.5t-75 14.5q-48 0 -82.5 -25t-34.5 -67q0 -45 34 -70.5t83 -25.5z" />
    <glyph glyph-name="guillemotleft" unicode="&#xab;" horiz-adv-x="1079" 
d="M1018 129h-240l-327 369l327 362h240l-328 -362zM629 129h-240l-328 369l328 362h240l-328 -362z" />
    <glyph glyph-name="logicalnot" unicode="&#xac;" horiz-adv-x="1054" 
d="M973 958v-546h-166v383h-748v163h914z" />
    <glyph glyph-name="uni00AD" unicode="&#xad;" horiz-adv-x="614" 
d="M553 385h-492v221h492v-221z" />
    <glyph glyph-name="registered" unicode="&#xae;" horiz-adv-x="1011" 
d="M940 952q0 -180 -126.5 -307t-307.5 -127q-180 0 -307 127t-127 307q0 181 127 307.5t307 126.5q119 0 219 -57.5t157.5 -157.5t57.5 -219zM874 952q0 154 -108 261.5t-260 107.5q-154 0 -261.5 -107.5t-107.5 -261.5q0 -152 107.5 -260t261.5 -108q152 0 260 108
t108 260zM711 702h-86l-129 197h-86v-197h-70v498h203q66 0 114 -42t48 -109q0 -72 -46 -110t-81 -38zM633 1049q0 39 -28 64.5t-62 25.5h-133v-176h133q34 0 62 24.5t28 61.5z" />
    <glyph glyph-name="macron" unicode="&#xaf;" horiz-adv-x="743" 
d="M743 1151h-743v147h743v-147z" />
    <glyph glyph-name="degree" unicode="&#xb0;" horiz-adv-x="636" 
d="M594 1108q0 -115 -80.5 -194.5t-196.5 -79.5t-196 79.5t-80 194.5q0 116 80.5 197t195.5 81t196 -81t81 -197zM453 1108q0 57 -40 97t-96 40q-57 0 -95 -40t-38 -97q0 -56 38 -94.5t95 -38.5q56 0 96 39t40 94z" />
    <glyph glyph-name="plusminus" unicode="&#xb1;" horiz-adv-x="1032" 
d="M973 668h-367v-418h-178v418h-369v159h369v404h178v-404h367v-159zM973 0h-914v160h914v-160z" />
    <glyph glyph-name="twosuperior" unicode="&#xb2;" horiz-adv-x="813" 
d="M737 862h-643v144q270 189 356.5 269.5t86.5 147.5q0 55 -39 84t-101 29q-67 0 -128.5 -30.5t-94.5 -71.5l-102 125q61 68 149 101.5t180 33.5q146 0 238 -67.5t92 -188.5q0 -96 -83 -191t-269 -227h358v-158z" />
    <glyph glyph-name="threesuperior" unicode="&#xb3;" horiz-adv-x="813" 
d="M743 1090q0 -108 -93.5 -175t-246.5 -67q-114 0 -200.5 35t-136.5 94l96 129q45 -49 109 -74.5t126 -25.5q71 0 110.5 26t39.5 70q0 56 -47 78t-133 22q-81 0 -93 -2v156q18 -2 91 -2q85 0 126 20.5t41 71.5q0 44 -41 67t-108 23q-125 0 -215 -90l-92 117
q121 131 327 131q154 0 240 -61t86 -163q0 -72 -53 -122.5t-129 -63.5q72 -5 134 -57t62 -137z" />
    <glyph glyph-name="acute" unicode="&#xb4;" horiz-adv-x="514" 
d="M514 1434l-332 -295h-182l274 295h240z" />
    <glyph glyph-name="mu" unicode="&#xb5;" horiz-adv-x="1214" 
d="M389 33v-410h-260v1366h260v-600q0 -184 184 -184q68 0 127 33t97 81v670h260v-692q0 -42 22.5 -66t59.5 -24q19 0 39 4l18 -221q-58 -15 -121 -15q-212 0 -266 177q-45 -79 -118 -128t-159 -49q-100 0 -143 58z" />
    <glyph glyph-name="paragraph" unicode="&#xb6;" horiz-adv-x="919" 
d="M825 -205h-129v1444h-159v-1444h-129v867q-146 0 -249.5 103t-103.5 249t103.5 249t249.5 103h417v-1571z" />
    <glyph glyph-name="periodcentered" unicode="&#xb7;" horiz-adv-x="524" 
d="M428 500q0 -66 -49.5 -115t-116.5 -49t-116.5 49t-49.5 115q0 68 49 117t117 49t117 -49t49 -117z" />
    <glyph glyph-name="cedilla" unicode="&#xb8;" horiz-adv-x="452" 
d="M225 -401q-70 0 -130.5 18.5t-94.5 46.5l51 105q78 -60 166 -60q44 0 75.5 18t31.5 50q0 53 -60 53q-36 0 -65 -29l-95 54l62 168h129l-53 -127q33 20 73 20q58 0 98 -40t40 -103q0 -79 -66 -126.5t-162 -47.5z" />
    <glyph glyph-name="onesuperior" unicode="&#xb9;" horiz-adv-x="585" 
d="M463 862h-199v568l-139 -142l-111 119l279 274h170v-819z" />
    <glyph glyph-name="ordmasculine" unicode="&#xba;" horiz-adv-x="829" 
d="M414 651q-158 0 -255.5 98.5t-97.5 239.5t97.5 239.5t255.5 98.5q161 0 257.5 -98t96.5 -240t-96.5 -240t-257.5 -98zM414 803q74 0 116.5 50.5t42.5 135.5t-42 133.5t-117 48.5t-116.5 -48.5t-41.5 -133.5q0 -86 42 -136t116 -50z" />
    <glyph glyph-name="guillemotright" unicode="&#xbb;" horiz-adv-x="1079" 
d="M629 498l-328 -369h-240l328 369l-328 362h240zM1018 498l-328 -369h-239l327 369l-327 362h239z" />
    <glyph glyph-name="onequarter" unicode="&#xbc;" horiz-adv-x="1705" 
d="M463 547h-199v567l-139 -141l-111 119l279 274h170v-819zM1655 176h-109v-176h-194v176h-402v133l324 510h272v-489h109v-154zM1352 330v323l-207 -323h207zM1313 1366l-875 -1366h-155l872 1366h158z" />
    <glyph glyph-name="onehalf" unicode="&#xbd;" horiz-adv-x="1775" 
d="M463 547h-199v567l-139 -141l-111 119l279 274h170v-819zM1698 0h-643v143q268 188 355 269.5t87 148.5q0 55 -39 84t-100 29q-66 0 -128 -30.5t-95 -72.5l-103 125q61 68 149.5 101.5t180.5 33.5q146 0 238 -67.5t92 -188.5q0 -96 -83 -190.5t-270 -226.5h359v-158z
M1313 1366l-875 -1366h-155l872 1366h158z" />
    <glyph glyph-name="threequarters" unicode="&#xbe;" horiz-adv-x="1886" 
d="M1835 176h-109v-176h-194v176h-402v133l324 510h272v-489h109v-154zM1532 330v323l-207 -323h207zM1491 1366l-875 -1366h-155l872 1366h158zM743 774q0 -108 -93.5 -175t-246.5 -67q-113 0 -200 35.5t-137 94.5l96 129q45 -49 109 -75t126 -26q71 0 110.5 26t39.5 70
q0 56 -47 78.5t-133 22.5q-81 0 -93 -2v155q18 -2 91 -2q85 0 126 20.5t41 71.5q0 44 -41 67.5t-108 23.5q-124 0 -215 -91l-92 117q121 131 327 131q154 0 240 -60.5t86 -162.5q0 -72 -53 -122.5t-129 -63.5q72 -5 134 -57.5t62 -137.5z" />
    <glyph glyph-name="questiondown" unicode="&#xbf;" horiz-adv-x="815" 
d="M567 567q70 -70 70 -180q0 -57 -22.5 -105t-55.5 -79t-72.5 -61t-72.5 -53t-55.5 -53t-22.5 -63q0 -49 41 -81.5t121 -32.5q148 0 252 125l165 -187q-83 -95 -199.5 -145.5t-250.5 -50.5q-194 0 -310 89.5t-116 233.5q0 70 25.5 128.5t63.5 94.5t83 71.5t83 61.5t63.5 62
t25.5 76q0 55 -39 86zM471 1012q67 0 116.5 -49t49.5 -117t-49.5 -117t-116.5 -49t-116.5 49t-49.5 117t49.5 117t116.5 49z" />
    <glyph glyph-name="Agrave" unicode="&#xc0;" horiz-adv-x="1400" 
d="M1409 0h-332l-84 231h-585l-86 -231h-332l528 1366h365zM913 487l-213 588l-213 -588h426zM831 1481h-182l-332 295h238z" />
    <glyph glyph-name="Aacute" unicode="&#xc1;" horiz-adv-x="1400" 
d="M1409 0h-332l-84 231h-585l-86 -231h-332l528 1366h365zM913 487l-213 588l-213 -588h426zM1085 1776l-331 -295h-183l275 295h239z" />
    <glyph glyph-name="Acircumflex" unicode="&#xc2;" horiz-adv-x="1400" 
d="M1010 1481h-160l-150 182l-145 -182h-160l189 295h233zM1409 0h-332l-84 231h-585l-86 -231h-332l528 1366h365zM913 487l-213 588l-213 -588h426z" />
    <glyph glyph-name="Atilde" unicode="&#xc3;" horiz-adv-x="1400" 
d="M1409 0h-332l-84 231h-585l-86 -231h-332l528 1366h365zM913 487l-213 588l-213 -588h426zM817 1477q-39 0 -70.5 14.5t-52 35t-38 40.5t-37.5 34.5t-41 14.5q-33 0 -53.5 -32t-20.5 -95h-137q0 131 57 202.5t164 71.5q46 0 83 -21.5t57 -47t46 -47t51 -21.5
q33 0 53.5 31.5t20.5 93.5h137q0 -131 -56 -202.5t-163 -71.5z" />
    <glyph glyph-name="Adieresis" unicode="&#xc4;" horiz-adv-x="1400" 
d="M1057 1593q0 -58 -41 -98.5t-98 -40.5t-98.5 40.5t-41.5 98.5q0 57 41.5 97.5t98.5 40.5t98 -40.5t41 -97.5zM623 1593q0 -58 -40.5 -98.5t-97.5 -40.5q-59 0 -99 40t-40 99q0 57 40.5 97.5t98.5 40.5q57 0 97.5 -40.5t40.5 -97.5zM1409 0h-332l-84 231h-585l-86 -231
h-332l528 1366h365zM913 487l-213 588l-213 -588h426z" />
    <glyph glyph-name="Aring" unicode="&#xc5;" horiz-adv-x="1400" 
d="M1409 0h-332l-84 231h-585l-86 -231h-332l528 1366h365zM913 487l-213 588l-213 -588h426zM702 1409q-88 0 -151.5 63t-63.5 152q0 88 63.5 152.5t151.5 64.5q89 0 151 -64.5t62 -152.5q0 -89 -62 -152t-151 -63zM702 1528q39 0 67 28.5t28 67.5q0 40 -27.5 68t-67.5 28
q-39 0 -67.5 -28.5t-28.5 -67.5q0 -38 29 -67t67 -29z" />
    <glyph glyph-name="AE" unicode="&#xc6;" horiz-adv-x="1982" 
d="M1896 0h-966v231h-481l-136 -231h-331l831 1366h1083v-256h-673v-289h659v-256h-659v-309h673v-256zM930 487v588l-342 -588h342z" />
    <glyph glyph-name="Ccedilla" unicode="&#xc7;" horiz-adv-x="1406" 
d="M784 -393q-70 0 -130.5 18.5t-94.5 46.5l51 105q78 -60 166 -60q44 0 75.5 18t31.5 50q0 53 -60 53q-37 0 -65 -28l-94 53l43 119q-278 28 -457.5 220.5t-179.5 479.5q0 155 56 287.5t153.5 224t231.5 143.5t286 52q108 0 201.5 -27.5t162 -76.5t118.5 -105.5t89 -124.5
l-250 -123q-44 86 -131 142t-190 56q-186 0 -307 -127t-121 -321t121 -321.5t307 -127.5q103 0 190 56t131 143l250 -121q-183 -319 -537 -334l-30 -73q33 20 73 20q58 0 98 -40t40 -103q0 -79 -66 -126.5t-162 -47.5z" />
    <glyph glyph-name="Egrave" unicode="&#xc8;" horiz-adv-x="1193" 
d="M1102 0h-967v1366h967v-256h-676v-289h661v-256h-661v-309h676v-256zM745 1481h-182l-332 295h238z" />
    <glyph glyph-name="Eacute" unicode="&#xc9;" horiz-adv-x="1193" 
d="M1001 1776l-331 -295h-183l275 295h239zM1102 0h-967v1366h967v-256h-676v-289h661v-256h-661v-309h676v-256z" />
    <glyph glyph-name="Ecircumflex" unicode="&#xca;" horiz-adv-x="1193" 
d="M926 1481h-160l-150 182l-145 -182h-160l189 295h233zM1102 0h-967v1366h967v-256h-676v-289h661v-256h-661v-309h676v-256z" />
    <glyph glyph-name="Edieresis" unicode="&#xcb;" horiz-adv-x="1193" 
d="M975 1593q0 -58 -41 -98.5t-98 -40.5t-98.5 40.5t-41.5 98.5q0 57 41.5 97.5t98.5 40.5t98 -40.5t41 -97.5zM541 1593q0 -58 -40.5 -98.5t-97.5 -40.5q-59 0 -99 40t-40 99q0 57 40.5 97.5t98.5 40.5q57 0 97.5 -40.5t40.5 -97.5zM1102 0h-967v1366h967v-256h-676v-289
h661v-256h-661v-309h676v-256z" />
    <glyph glyph-name="Igrave" unicode="&#xcc;" horiz-adv-x="561" 
d="M426 0h-291v1366h291v-1366zM412 1481h-183l-331 295h237z" />
    <glyph glyph-name="Iacute" unicode="&#xcd;" horiz-adv-x="561" 
d="M426 0h-291v1366h291v-1366zM668 1776l-332 -295h-182l274 295h240z" />
    <glyph glyph-name="Icircumflex" unicode="&#xce;" horiz-adv-x="561" 
d="M588 1481h-160l-149 182l-146 -182h-160l189 295h233zM426 0h-291v1366h291v-1366z" />
    <glyph glyph-name="Idieresis" unicode="&#xcf;" horiz-adv-x="561" 
d="M637 1593q0 -58 -41 -98.5t-98 -40.5t-98.5 40.5t-41.5 98.5q0 57 41.5 97.5t98.5 40.5t98 -40.5t41 -97.5zM203 1593q0 -58 -40 -98.5t-97 -40.5q-59 0 -99.5 40.5t-40.5 98.5q0 57 41 97.5t99 40.5q57 0 97 -40.5t40 -97.5zM426 0h-291v1366h291v-1366z" />
    <glyph glyph-name="Eth" unicode="&#xd0;" horiz-adv-x="1519" 
d="M725 0h-539v567h-170v215h170v584h539q212 0 377 -84.5t256.5 -240.5t91.5 -359t-91.5 -358.5t-256.5 -239.5t-377 -84zM725 256q196 0 312 123t116 303q0 189 -112 308.5t-316 119.5h-248v-328h305v-215h-305v-311h248z" />
    <glyph glyph-name="Ntilde" unicode="&#xd1;" horiz-adv-x="1492" 
d="M860 1477q-39 0 -70.5 14.5t-52 35t-38 40.5t-37.5 34.5t-41 14.5q-33 0 -53.5 -32t-20.5 -95h-137q0 131 57 202.5t164 71.5q46 0 83 -21.5t57 -47t46 -47t51 -21.5q33 0 53.5 31.5t20.5 93.5h137q0 -131 -56 -202.5t-163 -71.5zM1358 0h-281l-651 891v-891h-291v1366
h299l633 -858v858h291v-1366z" />
    <glyph glyph-name="Ograve" unicode="&#xd2;" horiz-adv-x="1566" 
d="M915 1481h-182l-332 295h238zM782 -25q-152 0 -284.5 53t-226.5 145.5t-147.5 224.5t-53.5 284t53.5 284t147.5 224.5t226.5 145.5t284.5 53q205 0 368 -90t255 -252t92 -365t-92 -365t-255 -252t-368 -90zM782 233q186 0 301 127.5t115 321.5q0 195 -115 321.5
t-301 126.5t-299.5 -126.5t-113.5 -321.5q0 -194 113.5 -321.5t299.5 -127.5z" />
    <glyph glyph-name="Oacute" unicode="&#xd3;" horiz-adv-x="1566" 
d="M1167 1776l-331 -295h-183l275 295h239zM782 -25q-152 0 -284.5 53t-226.5 145.5t-147.5 224.5t-53.5 284t53.5 284t147.5 224.5t226.5 145.5t284.5 53q205 0 368 -90t255 -252t92 -365t-92 -365t-255 -252t-368 -90zM782 233q186 0 301 127.5t115 321.5
q0 195 -115 321.5t-301 126.5t-299.5 -126.5t-113.5 -321.5q0 -194 113.5 -321.5t299.5 -127.5z" />
    <glyph glyph-name="Ocircumflex" unicode="&#xd4;" horiz-adv-x="1566" 
d="M1096 1481h-160l-150 182l-145 -182h-160l189 295h233zM782 -25q-152 0 -284.5 53t-226.5 145.5t-147.5 224.5t-53.5 284t53.5 284t147.5 224.5t226.5 145.5t284.5 53q205 0 368 -90t255 -252t92 -365t-92 -365t-255 -252t-368 -90zM782 233q186 0 301 127.5t115 321.5
q0 195 -115 321.5t-301 126.5t-299.5 -126.5t-113.5 -321.5q0 -194 113.5 -321.5t299.5 -127.5z" />
    <glyph glyph-name="Otilde" unicode="&#xd5;" horiz-adv-x="1566" 
d="M782 -25q-152 0 -284.5 53t-226.5 145.5t-147.5 224.5t-53.5 284t53.5 284t147.5 224.5t226.5 145.5t284.5 53q205 0 368 -90t255 -252t92 -365t-92 -365t-255 -252t-368 -90zM782 233q186 0 301 127.5t115 321.5q0 195 -115 321.5t-301 126.5t-299.5 -126.5
t-113.5 -321.5q0 -194 113.5 -321.5t299.5 -127.5zM899 1477q-39 0 -70.5 14.5t-52 35t-38.5 40.5t-38 34.5t-41 14.5q-33 0 -53 -32t-20 -95h-137q0 131 57 202.5t164 71.5q46 0 83 -21.5t57 -47t46 -47t51 -21.5q33 0 53.5 31.5t20.5 93.5h137q0 -131 -56 -202.5
t-163 -71.5z" />
    <glyph glyph-name="Odieresis" unicode="&#xd6;" horiz-adv-x="1566" 
d="M1141 1593q0 -58 -41.5 -98.5t-98.5 -40.5t-98 40.5t-41 98.5q0 57 41 97.5t98 40.5t98.5 -40.5t41.5 -97.5zM707 1593q0 -58 -40.5 -98.5t-97.5 -40.5q-59 0 -99 40t-40 99q0 57 40.5 97.5t98.5 40.5q57 0 97.5 -40.5t40.5 -97.5zM782 -25q-152 0 -284.5 53
t-226.5 145.5t-147.5 224.5t-53.5 284t53.5 284t147.5 224.5t226.5 145.5t284.5 53q205 0 368 -90t255 -252t92 -365t-92 -365t-255 -252t-368 -90zM782 233q186 0 301 127.5t115 321.5q0 195 -115 321.5t-301 126.5t-299.5 -126.5t-113.5 -321.5q0 -194 113.5 -321.5
t299.5 -127.5z" />
    <glyph glyph-name="multiply" unicode="&#xd7;" horiz-adv-x="1032" 
d="M805 281l-289 288l-287 -288l-116 112l288 291l-288 289l116 114l287 -290l289 290l115 -114l-289 -289l289 -291z" />
    <glyph glyph-name="Oslash" unicode="&#xd8;" horiz-adv-x="1566" 
d="M782 -25q-207 0 -376 97l-56 -72h-209l131 172q-97 95 -149.5 226t-52.5 284q0 152 53.5 284t147.5 224.5t226.5 145.5t284.5 53q193 0 355 -84l47 61h209l-119 -156q106 -97 164.5 -232.5t58.5 -295.5q0 -203 -92 -365t-255 -252t-368 -90zM782 233q186 0 301 127.5
t115 321.5q0 180 -98 301l-531 -694q94 -56 213 -56zM369 682q0 -162 80 -281l522 686q-88 43 -189 43q-186 0 -299.5 -126.5t-113.5 -321.5z" />
    <glyph glyph-name="Ugrave" unicode="&#xd9;" horiz-adv-x="1501" 
d="M752 -25q-153 0 -271.5 41.5t-193.5 117.5t-113.5 180t-38.5 231v821h295v-811q0 -146 83.5 -234t238.5 -88q154 0 236.5 87.5t82.5 234.5v811h297v-819q0 -264 -156.5 -418t-459.5 -154zM883 1481h-183l-331 295h237z" />
    <glyph glyph-name="Uacute" unicode="&#xda;" horiz-adv-x="1501" 
d="M1137 1776l-332 -295h-182l274 295h240zM752 -25q-153 0 -271.5 41.5t-193.5 117.5t-113.5 180t-38.5 231v821h295v-811q0 -146 83.5 -234t238.5 -88q154 0 236.5 87.5t82.5 234.5v811h297v-819q0 -264 -156.5 -418t-459.5 -154z" />
    <glyph glyph-name="Ucircumflex" unicode="&#xdb;" horiz-adv-x="1501" 
d="M1067 1481h-160l-149 182l-146 -182h-159l188 295h233zM752 -25q-153 0 -271.5 41.5t-193.5 117.5t-113.5 180t-38.5 231v821h295v-811q0 -146 83.5 -234t238.5 -88q154 0 236.5 87.5t82.5 234.5v811h297v-819q0 -264 -156.5 -418t-459.5 -154z" />
    <glyph glyph-name="Udieresis" unicode="&#xdc;" horiz-adv-x="1501" 
d="M1112 1593q0 -58 -41 -98.5t-98 -40.5t-98 40.5t-41 98.5q0 57 41 97.5t98 40.5t98 -40.5t41 -97.5zM678 1593q0 -58 -40 -98.5t-97 -40.5q-59 0 -99.5 40.5t-40.5 98.5q0 57 41 97.5t99 40.5q57 0 97 -40.5t40 -97.5zM752 -25q-153 0 -271.5 41.5t-193.5 117.5
t-113.5 180t-38.5 231v821h295v-811q0 -146 83.5 -234t238.5 -88q154 0 236.5 87.5t82.5 234.5v811h297v-819q0 -264 -156.5 -418t-459.5 -154z" />
    <glyph glyph-name="Yacute" unicode="&#xdd;" horiz-adv-x="1320" 
d="M807 0h-291v559l-526 807h332l340 -549l335 549h332l-522 -807v-559zM1044 1776l-331 -295h-183l275 295h239z" />
    <glyph glyph-name="Thorn" unicode="&#xde;" horiz-adv-x="1277" 
d="M426 0h-291v1366h291v-221h348q144 0 250 -61.5t157.5 -160.5t51.5 -221q0 -121 -52 -218.5t-158 -157.5t-249 -60h-348v-266zM731 522q89 0 147 50t58 133t-58 133.5t-147 50.5h-305v-367h305z" />
    <glyph glyph-name="germandbls" unicode="&#xdf;" horiz-adv-x="1316" 
d="M1284 295q0 -140 -113 -230t-299 -90q-135 0 -227 40t-176 116l111 180q43 -56 123.5 -94.5t168.5 -38.5q77 0 119.5 31.5t42.5 75.5q0 29 -23 49.5t-60.5 32t-85.5 24.5t-98 25t-98 35t-85.5 53.5t-60.5 82t-23 118.5q0 59 26 108.5t63 81t74 57.5t63 51.5t26 49.5
q0 48 -47 75t-111 27q-89 0 -147 -49t-58 -133v-973h-260v973q0 175 126.5 294t342.5 119q110 0 205.5 -35t156 -103.5t60.5 -157.5q0 -64 -28 -114.5t-67.5 -82.5t-79 -59t-67.5 -57.5t-28 -63.5q0 -29 29.5 -47t76.5 -29t104 -22.5t114 -33t104 -54t76.5 -92t29.5 -140.5z
" />
    <glyph glyph-name="agrave" unicode="&#xe0;" horiz-adv-x="1112" 
d="M983 0h-260v102q-51 -60 -133.5 -93.5t-179.5 -33.5q-61 0 -120.5 21t-110.5 60t-82 103.5t-31 143.5q0 67 20.5 122t55 91t79.5 60.5t92.5 35.5t96.5 11q99 0 181.5 -31.5t131.5 -89.5v133q0 75 -59.5 120.5t-157.5 45.5q-163 0 -289 -117l-98 174q178 156 432 156
q89 0 163 -19t136.5 -61t97.5 -117t35 -178v-639zM514 152q65 0 121.5 22t87.5 64v122q-31 42 -87.5 64t-121.5 22q-80 0 -133 -39.5t-53 -109.5q0 -67 53.5 -106t132.5 -39zM680 1139h-182l-332 295h237z" />
    <glyph glyph-name="aacute" unicode="&#xe1;" horiz-adv-x="1112" 
d="M983 0h-260v102q-51 -60 -133.5 -93.5t-179.5 -33.5q-61 0 -120.5 21t-110.5 60t-82 103.5t-31 143.5q0 67 20.5 122t55 91t79.5 60.5t92.5 35.5t96.5 11q99 0 181.5 -31.5t131.5 -89.5v133q0 75 -59.5 120.5t-157.5 45.5q-163 0 -289 -117l-98 174q178 156 432 156
q89 0 163 -19t136.5 -61t97.5 -117t35 -178v-639zM514 152q65 0 121.5 22t87.5 64v122q-31 42 -87.5 64t-121.5 22q-80 0 -133 -39.5t-53 -109.5q0 -67 53.5 -106t132.5 -39zM934 1434l-332 -295h-182l274 295h240z" />
    <glyph glyph-name="acircumflex" unicode="&#xe2;" horiz-adv-x="1112" 
d="M983 0h-260v102q-51 -60 -133.5 -93.5t-179.5 -33.5q-61 0 -120.5 21t-110.5 60t-82 103.5t-31 143.5q0 67 20.5 122t55 91t79.5 60.5t92.5 35.5t96.5 11q99 0 181.5 -31.5t131.5 -89.5v133q0 75 -59.5 120.5t-157.5 45.5q-163 0 -289 -117l-98 174q178 156 432 156
q89 0 163 -19t136.5 -61t97.5 -117t35 -178v-639zM514 152q65 0 121.5 22t87.5 64v122q-31 42 -87.5 64t-121.5 22q-80 0 -133 -39.5t-53 -109.5q0 -67 53.5 -106t132.5 -39zM862 1139h-160l-149 182l-145 -182h-160l188 295h234z" />
    <glyph glyph-name="atilde" unicode="&#xe3;" horiz-adv-x="1112" 
d="M983 0h-260v102q-51 -60 -133.5 -93.5t-179.5 -33.5q-61 0 -120.5 21t-110.5 60t-82 103.5t-31 143.5q0 67 20.5 122t55 91t79.5 60.5t92.5 35.5t96.5 11q99 0 181.5 -31.5t131.5 -89.5v133q0 75 -59.5 120.5t-157.5 45.5q-163 0 -289 -117l-98 174q178 156 432 156
q89 0 163 -19t136.5 -61t97.5 -117t35 -178v-639zM514 152q65 0 121.5 22t87.5 64v122q-31 42 -87.5 64t-121.5 22q-80 0 -133 -39.5t-53 -109.5q0 -67 53.5 -106t132.5 -39zM668 1135q-39 0 -70.5 14.5t-52 35t-38.5 40.5t-38 34.5t-41 14.5q-33 0 -53.5 -32t-20.5 -95
h-137q0 131 57 202.5t164 71.5q46 0 83 -21.5t57.5 -47t46.5 -47t51 -21.5q33 0 53.5 31.5t20.5 93.5h137q0 -131 -56 -202.5t-163 -71.5z" />
    <glyph glyph-name="adieresis" unicode="&#xe4;" horiz-adv-x="1112" 
d="M983 0h-260v102q-51 -60 -133.5 -93.5t-179.5 -33.5q-61 0 -120.5 21t-110.5 60t-82 103.5t-31 143.5q0 67 20.5 122t55 91t79.5 60.5t92.5 35.5t96.5 11q99 0 181.5 -31.5t131.5 -89.5v133q0 75 -59.5 120.5t-157.5 45.5q-163 0 -289 -117l-98 174q178 156 432 156
q89 0 163 -19t136.5 -61t97.5 -117t35 -178v-639zM514 152q65 0 121.5 22t87.5 64v122q-31 42 -87.5 64t-121.5 22q-80 0 -133 -39.5t-53 -109.5q0 -67 53.5 -106t132.5 -39zM907 1251q0 -58 -41 -98.5t-98 -40.5t-98 40.5t-41 98.5q0 57 41 97.5t98 40.5t98 -40.5t41 -97.5
zM473 1251q0 -58 -40 -98.5t-97 -40.5q-58 0 -98.5 40t-40.5 99q0 57 40.5 97.5t98.5 40.5q57 0 97 -40.5t40 -97.5z" />
    <glyph glyph-name="aring" unicode="&#xe5;" horiz-adv-x="1112" 
d="M983 0h-260v102q-51 -60 -133.5 -93.5t-179.5 -33.5q-61 0 -120.5 21t-110.5 60t-82 103.5t-31 143.5q0 67 20.5 122t55 91t79.5 60.5t92.5 35.5t96.5 11q99 0 181.5 -31.5t131.5 -89.5v133q0 75 -59.5 120.5t-157.5 45.5q-163 0 -289 -117l-98 174q178 156 432 156
q89 0 163 -19t136.5 -61t97.5 -117t35 -178v-639zM514 152q65 0 121.5 22t87.5 64v122q-31 42 -87.5 64t-121.5 22q-80 0 -133 -39.5t-53 -109.5q0 -67 53.5 -106t132.5 -39zM555 1087q-88 0 -151.5 63.5t-63.5 152.5q0 88 63.5 152.5t151.5 64.5q89 0 151 -64.5t62 -152.5
q0 -90 -62 -153t-151 -63zM555 1206q39 0 66.5 29t27.5 68q0 40 -27 68t-67 28q-39 0 -67.5 -28.5t-28.5 -67.5q0 -38 29 -67.5t67 -29.5z" />
    <glyph glyph-name="ae" unicode="&#xe6;" horiz-adv-x="1781" 
d="M1722 412h-698q14 -97 83.5 -160.5t182.5 -63.5q66 0 133.5 26t110.5 71l117 -172q-71 -65 -176 -101.5t-203 -36.5q-255 0 -381 181q-64 -81 -174 -131t-238 -50q-112 0 -203.5 34t-150.5 109t-59 181q0 105 50 179.5t129.5 109.5t178.5 35q103 0 192.5 -31t145.5 -88
v133q0 73 -65 118.5t-171 45.5q-171 0 -309 -117l-98 174q88 77 202 116.5t236 39.5q260 0 346 -170q61 80 145.5 125t213.5 45q205 0 332.5 -151t127.5 -394v-57zM1020 588h450q-2 38 -15 74.5t-38.5 70t-70 54t-101.5 20.5q-101 0 -158.5 -67t-66.5 -152zM762 346v12
q-36 41 -99 64.5t-133 23.5q-89 0 -145.5 -34.5t-56.5 -98.5t55.5 -98.5t140.5 -34.5q95 0 166.5 52.5t71.5 113.5z" />
    <glyph glyph-name="ccedilla" unicode="&#xe7;" horiz-adv-x="1021" 
d="M596 -397q-70 0 -130.5 18.5t-94.5 46.5l51 105q78 -60 166 -60q44 0 75 18t31 50q0 53 -59 53q-37 0 -66 -29l-94 54l43 121q-202 22 -327 163.5t-125 352.5q0 227 147.5 372.5t376.5 145.5q260 0 391 -178l-170 -160q-71 106 -209 106q-119 0 -193.5 -79t-74.5 -207
q0 -129 74.5 -209t193.5 -80q134 0 209 106l170 -157q-50 -71 -134 -120t-202 -59l-33 -77q33 20 74 20q58 0 97.5 -40t39.5 -103q0 -79 -65.5 -126.5t-161.5 -47.5z" />
    <glyph glyph-name="egrave" unicode="&#xe8;" horiz-adv-x="1132" 
d="M594 -25q-229 0 -378.5 143.5t-149.5 377.5q0 143 64.5 261t182.5 187.5t265 69.5q221 0 358 -151t137 -394v-57h-735q13 -99 88.5 -164.5t196.5 -65.5q66 0 142 27.5t122 71.5l114 -168q-72 -66 -180.5 -102t-226.5 -36zM821 588q-2 38 -16.5 74.5t-42 70t-75.5 54
t-109 20.5q-58 0 -104.5 -20t-74.5 -53t-44 -70t-21 -76h487zM709 1139h-183l-331 295h237z" />
    <glyph glyph-name="eacute" unicode="&#xe9;" horiz-adv-x="1132" 
d="M963 1434l-332 -295h-182l274 295h240zM594 -25q-229 0 -378.5 143.5t-149.5 377.5q0 143 64.5 261t182.5 187.5t265 69.5q221 0 358 -151t137 -394v-57h-735q13 -99 88.5 -164.5t196.5 -65.5q66 0 142 27.5t122 71.5l114 -168q-72 -66 -180.5 -102t-226.5 -36zM821 588
q-2 38 -16.5 74.5t-42 70t-75.5 54t-109 20.5q-58 0 -104.5 -20t-74.5 -53t-44 -70t-21 -76h487z" />
    <glyph glyph-name="ecircumflex" unicode="&#xea;" horiz-adv-x="1132" 
d="M887 1139h-160l-149 182l-146 -182h-160l189 295h233zM594 -25q-229 0 -378.5 143.5t-149.5 377.5q0 143 64.5 261t182.5 187.5t265 69.5q221 0 358 -151t137 -394v-57h-735q13 -99 88.5 -164.5t196.5 -65.5q66 0 142 27.5t122 71.5l114 -168q-72 -66 -180.5 -102
t-226.5 -36zM821 588q-2 38 -16.5 74.5t-42 70t-75.5 54t-109 20.5q-58 0 -104.5 -20t-74.5 -53t-44 -70t-21 -76h487z" />
    <glyph glyph-name="edieresis" unicode="&#xeb;" horiz-adv-x="1132" 
d="M936 1251q0 -58 -41 -98.5t-98 -40.5t-98.5 40.5t-41.5 98.5q0 57 41.5 97.5t98.5 40.5t98 -40.5t41 -97.5zM502 1251q0 -58 -40 -98.5t-97 -40.5q-59 0 -99.5 40.5t-40.5 98.5q0 57 41 97.5t99 40.5q57 0 97 -40.5t40 -97.5zM594 -25q-229 0 -378.5 143.5t-149.5 377.5
q0 143 64.5 261t182.5 187.5t265 69.5q221 0 358 -151t137 -394v-57h-735q13 -99 88.5 -164.5t196.5 -65.5q66 0 142 27.5t122 71.5l114 -168q-72 -66 -180.5 -102t-226.5 -36zM821 588q-2 38 -16.5 74.5t-42 70t-75.5 54t-109 20.5q-58 0 -104.5 -20t-74.5 -53t-44 -70
t-21 -76h487z" />
    <glyph glyph-name="igrave" unicode="&#xec;" horiz-adv-x="518" 
d="M389 0h-260v989h260v-989zM389 1139h-182l-332 295h238z" />
    <glyph glyph-name="iacute" unicode="&#xed;" horiz-adv-x="518" 
d="M643 1434l-332 -295h-182l274 295h240zM389 0h-260v989h260v-989z" />
    <glyph glyph-name="icircumflex" unicode="&#xee;" horiz-adv-x="518" 
d="M565 1139h-159l-150 182l-145 -182h-160l188 295h234zM389 0h-260v989h260v-989z" />
    <glyph glyph-name="idieresis" unicode="&#xef;" horiz-adv-x="518" 
d="M614 1251q0 -58 -41 -98.5t-98 -40.5t-98 40.5t-41 98.5q0 57 41 97.5t98 40.5t98 -40.5t41 -97.5zM180 1251q0 -58 -40 -98.5t-97 -40.5q-59 0 -99 40t-40 99q0 57 40.5 97.5t98.5 40.5q57 0 97 -40.5t40 -97.5zM389 0h-260v989h260v-989z" />
    <glyph glyph-name="eth" unicode="&#xf0;" horiz-adv-x="1175" 
d="M211 961l-51 122l219 97q-24 16 -69 42t-56 33l141 211q155 -95 252 -170l211 93l51 -119l-149 -66q352 -313 352 -688q0 -243 -140.5 -392t-383.5 -149q-234 0 -378 135.5t-144 348.5q0 211 125 347t313 136q207 0 327 -190q-73 167 -321 340zM588 207q117 0 185.5 72.5
t68.5 179.5t-68.5 179.5t-185.5 72.5t-184.5 -72.5t-67.5 -179.5t67.5 -179.5t184.5 -72.5z" />
    <glyph glyph-name="ntilde" unicode="&#xf1;" 
d="M1057 0h-260v598q0 98 -47.5 141t-135.5 43q-71 0 -130 -33.5t-95 -82.5v-666h-260v989h260v-129q54 65 144 109.5t202 44.5q159 0 240.5 -83.5t81.5 -232.5v-698zM711 1135q-39 0 -70.5 14.5t-52 35t-38.5 40.5t-38 34.5t-41 14.5q-33 0 -53.5 -32t-20.5 -95h-137
q0 131 57 202.5t164 71.5q46 0 83 -21.5t57.5 -47t46.5 -47t51 -21.5q33 0 53.5 31.5t20.5 93.5h137q0 -131 -56 -202.5t-163 -71.5z" />
    <glyph glyph-name="ograve" unicode="&#xf2;" horiz-adv-x="1175" 
d="M588 -25q-158 0 -278.5 71.5t-182 189t-61.5 260.5q0 142 61.5 258.5t182 188t278.5 71.5q159 0 280 -71.5t182.5 -188t61.5 -258.5q0 -106 -36.5 -200.5t-102 -166t-165.5 -113t-220 -41.5zM588 207q117 0 185.5 83.5t68.5 205.5q0 121 -68.5 203.5t-185.5 82.5
t-184.5 -82.5t-67.5 -203.5q0 -122 67.5 -205.5t184.5 -83.5zM719 1139h-182l-332 295h237z" />
    <glyph glyph-name="oacute" unicode="&#xf3;" horiz-adv-x="1175" 
d="M973 1434l-332 -295h-182l274 295h240zM588 -25q-158 0 -278.5 71.5t-182 189t-61.5 260.5q0 142 61.5 258.5t182 188t278.5 71.5q159 0 280 -71.5t182.5 -188t61.5 -258.5q0 -106 -36.5 -200.5t-102 -166t-165.5 -113t-220 -41.5zM588 207q117 0 185.5 83.5t68.5 205.5
q0 121 -68.5 203.5t-185.5 82.5t-184.5 -82.5t-67.5 -203.5q0 -122 67.5 -205.5t184.5 -83.5z" />
    <glyph glyph-name="ocircumflex" unicode="&#xf4;" horiz-adv-x="1175" 
d="M895 1139h-160l-149 182l-146 -182h-159l188 295h233zM588 -25q-158 0 -278.5 71.5t-182 189t-61.5 260.5q0 142 61.5 258.5t182 188t278.5 71.5q159 0 280 -71.5t182.5 -188t61.5 -258.5q0 -106 -36.5 -200.5t-102 -166t-165.5 -113t-220 -41.5zM588 207
q117 0 185.5 83.5t68.5 205.5q0 121 -68.5 203.5t-185.5 82.5t-184.5 -82.5t-67.5 -203.5q0 -122 67.5 -205.5t184.5 -83.5z" />
    <glyph glyph-name="otilde" unicode="&#xf5;" horiz-adv-x="1175" 
d="M588 -25q-158 0 -278.5 71.5t-182 189t-61.5 260.5q0 142 61.5 258.5t182 188t278.5 71.5q159 0 280 -71.5t182.5 -188t61.5 -258.5q0 -106 -36.5 -200.5t-102 -166t-165.5 -113t-220 -41.5zM588 207q117 0 185.5 83.5t68.5 205.5q0 121 -68.5 203.5t-185.5 82.5
t-184.5 -82.5t-67.5 -203.5q0 -122 67.5 -205.5t184.5 -83.5zM705 1135q-39 0 -70.5 14.5t-52 35t-38.5 40.5t-38 34.5t-41 14.5q-33 0 -53.5 -32t-20.5 -95h-137q0 131 57 202.5t164 71.5q46 0 83 -21.5t57.5 -47t46.5 -47t51 -21.5q33 0 53 31.5t20 93.5h138
q0 -131 -56 -202.5t-163 -71.5z" />
    <glyph glyph-name="odieresis" unicode="&#xf6;" horiz-adv-x="1175" 
d="M944 1251q0 -58 -41 -98.5t-98 -40.5t-98 40.5t-41 98.5q0 57 41 97.5t98 40.5t98 -40.5t41 -97.5zM510 1251q0 -58 -40 -98.5t-97 -40.5q-59 0 -99.5 40.5t-40.5 98.5q0 57 41 97.5t99 40.5q57 0 97 -40.5t40 -97.5zM588 -25q-158 0 -278.5 71.5t-182 189t-61.5 260.5
q0 142 61.5 258.5t182 188t278.5 71.5q159 0 280 -71.5t182.5 -188t61.5 -258.5q0 -106 -36.5 -200.5t-102 -166t-165.5 -113t-220 -41.5zM588 207q117 0 185.5 83.5t68.5 205.5q0 121 -68.5 203.5t-185.5 82.5t-184.5 -82.5t-67.5 -203.5q0 -122 67.5 -205.5t184.5 -83.5z
" />
    <glyph glyph-name="divide" unicode="&#xf7;" horiz-adv-x="1046" 
d="M647 1057q0 -53 -36.5 -90t-88.5 -37t-88.5 37t-36.5 90q0 51 36.5 87t88.5 36t88.5 -36t36.5 -87zM987 610h-928v162h928v-162zM647 322q0 -52 -36.5 -88.5t-88.5 -36.5t-88.5 36.5t-36.5 88.5q0 51 36.5 87.5t88.5 36.5t88.5 -36.5t36.5 -87.5z" />
    <glyph glyph-name="oslash" unicode="&#xf8;" horiz-adv-x="1175" 
d="M242 0h-160l117 137q-133 145 -133 359q0 142 61.5 258.5t182 188t278.5 71.5q165 0 289 -78l45 53h163l-112 -131q139 -145 139 -362q0 -106 -36.5 -200.5t-102 -166t-165.5 -113t-220 -41.5q-173 0 -297 82zM588 207q117 0 185.5 83.5t68.5 205.5q0 90 -41 161
l-350 -411q53 -39 137 -39zM336 496q0 -88 35 -156l346 408q-55 34 -129 34q-117 0 -184.5 -82.5t-67.5 -203.5z" />
    <glyph glyph-name="ugrave" unicode="&#xf9;" 
d="M1057 0h-260v125q-58 -65 -146.5 -107.5t-201.5 -42.5q-159 0 -239.5 82t-80.5 230v702h260v-600q0 -98 47 -140t135 -42q70 0 129 32t97 80v670h260v-989zM723 1139h-182l-332 295h237z" />
    <glyph glyph-name="uacute" unicode="&#xfa;" 
d="M975 1434l-332 -295h-182l274 295h240zM1057 0h-260v125q-58 -65 -146.5 -107.5t-201.5 -42.5q-159 0 -239.5 82t-80.5 230v702h260v-600q0 -98 47 -140t135 -42q70 0 129 32t97 80v670h260v-989z" />
    <glyph glyph-name="ucircumflex" unicode="&#xfb;" 
d="M901 1139h-160l-149 182l-146 -182h-159l188 295h234zM1057 0h-260v125q-58 -65 -146.5 -107.5t-201.5 -42.5q-159 0 -239.5 82t-80.5 230v702h260v-600q0 -98 47 -140t135 -42q70 0 129 32t97 80v670h260v-989z" />
    <glyph glyph-name="udieresis" unicode="&#xfc;" 
d="M948 1251q0 -58 -41 -98.5t-98 -40.5t-98 40.5t-41 98.5q0 57 41 97.5t98 40.5t98 -40.5t41 -97.5zM514 1251q0 -58 -40 -98.5t-97 -40.5q-59 0 -99 40t-40 99q0 57 40.5 97.5t98.5 40.5q57 0 97 -40.5t40 -97.5zM1057 0h-260v125q-58 -65 -146.5 -107.5t-201.5 -42.5
q-159 0 -239.5 82t-80.5 230v702h260v-600q0 -98 47 -140t135 -42q70 0 129 32t97 80v670h260v-989z" />
    <glyph glyph-name="yacute" unicode="&#xfd;" horiz-adv-x="1050" 
d="M94 -387l39 233q37 -16 82 -16q103 0 137 72l37 84l-401 1003h278l258 -688l258 688h281l-465 -1151q-52 -131 -144 -183.5t-231 -55.5q-71 0 -129 14zM907 1434l-332 -295h-182l275 295h239z" />
    <glyph glyph-name="thorn" unicode="&#xfe;" horiz-adv-x="1193" 
d="M694 -25q-186 0 -305 152v-504h-260v1743h260v-502q119 150 305 150q195 0 317 -138t122 -380t-122 -381.5t-317 -139.5zM612 207q112 0 181 80t69 209q0 128 -69 207t-181 79q-63 0 -127 -32.5t-96 -79.5v-351q33 -47 97 -79.5t126 -32.5z" />
    <glyph glyph-name="ydieresis" unicode="&#xff;" horiz-adv-x="1050" 
d="M94 -387l39 233q37 -16 82 -16q103 0 137 72l37 84l-401 1003h278l258 -688l258 688h281l-465 -1151q-52 -131 -144 -183.5t-231 -55.5q-71 0 -129 14zM881 1251q0 -58 -41.5 -98.5t-98.5 -40.5t-98 40.5t-41 98.5q0 57 41 97.5t98 40.5t98.5 -40.5t41.5 -97.5zM446 1251
q0 -58 -40 -98.5t-97 -40.5q-59 0 -99 40t-40 99q0 57 40.5 97.5t98.5 40.5q57 0 97 -40.5t40 -97.5z" />
    <glyph glyph-name="Amacron" unicode="&#x100;" horiz-adv-x="1400" 
d="M1409 0h-332l-84 231h-585l-86 -231h-332l528 1366h365zM913 487l-213 588l-213 -588h426zM1071 1493h-743v147h743v-147z" />
    <glyph glyph-name="amacron" unicode="&#x101;" horiz-adv-x="1112" 
d="M983 0h-260v102q-51 -60 -133.5 -93.5t-179.5 -33.5q-61 0 -120.5 21t-110.5 60t-82 103.5t-31 143.5q0 67 20.5 122t55 91t79.5 60.5t92.5 35.5t96.5 11q99 0 181.5 -31.5t131.5 -89.5v133q0 75 -59.5 120.5t-157.5 45.5q-163 0 -289 -117l-98 174q178 156 432 156
q89 0 163 -19t136.5 -61t97.5 -117t35 -178v-639zM514 152q65 0 121.5 22t87.5 64v122q-31 42 -87.5 64t-121.5 22q-80 0 -133 -39.5t-53 -109.5q0 -67 53.5 -106t132.5 -39zM924 1151h-744v147h744v-147z" />
    <glyph glyph-name="Abreve" unicode="&#x102;" horiz-adv-x="1400" 
d="M1409 0h-332l-84 231h-585l-86 -231h-332l528 1366h365zM913 487l-213 588l-213 -588h426zM1059 1610q-62 -84 -156 -132t-203 -48q-107 0 -201.5 48t-158.5 132l115 96q90 -127 245 -127q154 0 244 127z" />
    <glyph glyph-name="abreve" unicode="&#x103;" horiz-adv-x="1112" 
d="M983 0h-260v102q-51 -60 -133.5 -93.5t-179.5 -33.5q-61 0 -120.5 21t-110.5 60t-82 103.5t-31 143.5q0 67 20.5 122t55 91t79.5 60.5t92.5 35.5t96.5 11q99 0 181.5 -31.5t131.5 -89.5v133q0 75 -59.5 120.5t-157.5 45.5q-163 0 -289 -117l-98 174q178 156 432 156
q89 0 163 -19t136.5 -61t97.5 -117t35 -178v-639zM514 152q65 0 121.5 22t87.5 64v122q-31 42 -87.5 64t-121.5 22q-80 0 -133 -39.5t-53 -109.5q0 -67 53.5 -106t132.5 -39zM911 1268q-63 -85 -156 -133t-202 -48q-107 0 -201.5 48.5t-158.5 132.5l114 96q90 -127 246 -127
q154 0 244 127z" />
    <glyph glyph-name="Aogonek" unicode="&#x104;" horiz-adv-x="1400" 
d="M1430 -201l104 -65q-64 -115 -193 -115q-89 0 -146.5 45.5t-57.5 138.5q0 114 92 197h-152l-84 231h-585l-86 -231h-332l528 1366h365l526 -1366q-143 -72 -143 -184q0 -44 21.5 -66t53.5 -22q65 0 89 71zM913 487l-213 588l-213 -588h426z" />
    <glyph glyph-name="aogonek" unicode="&#x105;" horiz-adv-x="1112" 
d="M1004 -201l104 -65q-64 -115 -193 -115q-89 0 -146.5 45.5t-57.5 138.5q0 114 92 197h-80v102q-51 -60 -133.5 -93.5t-179.5 -33.5q-61 0 -120.5 21t-110.5 60t-82 103.5t-31 143.5q0 67 20.5 122t55 91t79.5 60.5t92.5 35.5t96.5 11q99 0 181.5 -31.5t131.5 -89.5v133
q0 75 -59.5 120.5t-157.5 45.5q-163 0 -289 -117l-98 174q178 156 432 156q89 0 163 -19t136.5 -61t97.5 -117t35 -178v-639q-143 -72 -143 -184q0 -44 21.5 -66t53.5 -22q65 0 89 71zM514 152q65 0 121.5 22t87.5 64v122q-31 42 -87.5 64t-121.5 22q-80 0 -133 -39.5
t-53 -109.5q0 -67 53.5 -106t132.5 -39z" />
    <glyph glyph-name="Cacute" unicode="&#x106;" horiz-adv-x="1406" 
d="M1180 1776l-332 -295h-182l274 295h240zM797 -25q-152 0 -286 52t-231.5 143.5t-153.5 224t-56 287.5t56 287.5t153.5 224t231.5 143.5t286 52q108 0 201.5 -27.5t162 -76.5t118.5 -105.5t89 -124.5l-250 -123q-44 86 -131 142t-190 56q-186 0 -307 -127t-121 -321
t121 -321.5t307 -127.5q103 0 190 56t131 143l250 -121q-194 -336 -571 -336z" />
    <glyph glyph-name="cacute" unicode="&#x107;" horiz-adv-x="1021" 
d="M973 1434l-332 -295h-182l274 295h240zM590 -25q-229 0 -376.5 146.5t-147.5 374.5q0 227 147.5 372.5t376.5 145.5q260 0 391 -178l-170 -160q-71 106 -209 106q-119 0 -193.5 -79t-74.5 -207q0 -129 74.5 -209t193.5 -80q134 0 209 106l170 -157q-57 -79 -154 -130
t-237 -51z" />
    <glyph glyph-name="Ccircumflex" unicode="&#x108;" horiz-adv-x="1406" 
d="M1102 1481h-160l-149 182l-146 -182h-160l189 295h233zM797 -25q-152 0 -286 52t-231.5 143.5t-153.5 224t-56 287.5t56 287.5t153.5 224t231.5 143.5t286 52q108 0 201.5 -27.5t162 -76.5t118.5 -105.5t89 -124.5l-250 -123q-44 86 -131 142t-190 56q-186 0 -307 -127
t-121 -321t121 -321.5t307 -127.5q103 0 190 56t131 143l250 -121q-194 -336 -571 -336z" />
    <glyph glyph-name="ccircumflex" unicode="&#x109;" horiz-adv-x="1021" 
d="M905 1139h-160l-149 182l-145 -182h-160l188 295h234zM590 -25q-229 0 -376.5 146.5t-147.5 374.5q0 227 147.5 372.5t376.5 145.5q260 0 391 -178l-170 -160q-71 106 -209 106q-119 0 -193.5 -79t-74.5 -207q0 -129 74.5 -209t193.5 -80q134 0 209 106l170 -157
q-57 -79 -154 -130t-237 -51z" />
    <glyph glyph-name="Cdotaccent" unicode="&#x10a;" horiz-adv-x="1406" 
d="M797 -25q-152 0 -286 52t-231.5 143.5t-153.5 224t-56 287.5t56 287.5t153.5 224t231.5 143.5t286 52q108 0 201.5 -27.5t162 -76.5t118.5 -105.5t89 -124.5l-250 -123q-44 86 -131 142t-190 56q-186 0 -307 -127t-121 -321t121 -321.5t307 -127.5q103 0 190 56t131 143
l250 -121q-194 -336 -571 -336zM803 1454q-59 0 -99 40t-40 99q0 57 40.5 98.5t98.5 41.5q56 0 96.5 -41.5t40.5 -98.5q0 -58 -40.5 -98.5t-96.5 -40.5z" />
    <glyph glyph-name="cdotaccent" unicode="&#x10b;" horiz-adv-x="1021" 
d="M590 -25q-229 0 -376.5 146.5t-147.5 374.5q0 227 147.5 372.5t376.5 145.5q260 0 391 -178l-170 -160q-71 106 -209 106q-119 0 -193.5 -79t-74.5 -207q0 -129 74.5 -209t193.5 -80q134 0 209 106l170 -157q-57 -79 -154 -130t-237 -51zM592 1112q-58 0 -98.5 40
t-40.5 99q0 57 40.5 98.5t98.5 41.5q56 0 96.5 -41.5t40.5 -98.5q0 -58 -40.5 -98.5t-96.5 -40.5z" />
    <glyph glyph-name="Ccaron" unicode="&#x10c;" horiz-adv-x="1406" 
d="M915 1481h-233l-195 295h160l152 -185l143 185h160zM797 -25q-152 0 -286 52t-231.5 143.5t-153.5 224t-56 287.5t56 287.5t153.5 224t231.5 143.5t286 52q108 0 201.5 -27.5t162 -76.5t118.5 -105.5t89 -124.5l-250 -123q-44 86 -131 142t-190 56q-186 0 -307 -127
t-121 -321t121 -321.5t307 -127.5q103 0 190 56t131 143l250 -121q-194 -336 -571 -336z" />
    <glyph glyph-name="ccaron" unicode="&#x10d;" horiz-adv-x="1021" 
d="M719 1139h-234l-194 295h160l151 -185l143 185h160zM590 -25q-229 0 -376.5 146.5t-147.5 374.5q0 227 147.5 372.5t376.5 145.5q260 0 391 -178l-170 -160q-71 106 -209 106q-119 0 -193.5 -79t-74.5 -207q0 -129 74.5 -209t193.5 -80q134 0 209 106l170 -157
q-57 -79 -154 -130t-237 -51z" />
    <glyph glyph-name="Dcaron" unicode="&#x10e;" horiz-adv-x="1470" 
d="M862 1481h-233l-195 295h160l151 -185l144 185h160zM674 0h-539v1366h539q212 0 377 -84.5t256.5 -240.5t91.5 -359t-91.5 -358.5t-256.5 -239.5t-377 -84zM674 256q196 0 312 123t116 303q0 189 -112 308.5t-316 119.5h-248v-854h248z" />
    <glyph glyph-name="dcaron" unicode="&#x10f;" horiz-adv-x="1413" 
d="M1425 1225q0 -91 -46 -171t-124 -136l-90 71q43 24 81.5 71.5t47.5 90.5q-8 -4 -30 -4q-46 0 -77.5 32.5t-31.5 82.5q0 54 36.5 91.5t88.5 37.5q60 0 102.5 -45t42.5 -121zM1071 0h-262v127q-121 -152 -305 -152q-193 0 -315.5 138.5t-122.5 380.5q0 239 122.5 379.5
t315.5 140.5q89 0 168 -39t137 -113v504h262v-1366zM584 207q66 0 129.5 31.5t95.5 80.5v351q-32 49 -95.5 80.5t-129.5 31.5q-111 0 -180.5 -79.5t-69.5 -208.5q0 -127 70 -207t180 -80z" />
    <glyph glyph-name="Dcroat" unicode="&#x110;" horiz-adv-x="1519" 
d="M725 0h-539v567h-170v215h170v584h539q212 0 377 -84.5t256.5 -240.5t91.5 -359t-91.5 -358.5t-256.5 -239.5t-377 -84zM725 256q196 0 312 123t116 303q0 189 -112 308.5t-316 119.5h-248v-328h305v-215h-305v-311h248z" />
    <glyph glyph-name="dcroat" unicode="&#x111;" horiz-adv-x="1208" 
d="M1071 0h-262v127q-121 -152 -305 -152q-193 0 -315.5 138.5t-122.5 380.5q0 239 122.5 379.5t315.5 140.5q89 0 168 -39t137 -113v219h-297v148h297v137h262v-137h119v-148h-119v-1081zM584 207q66 0 129.5 31.5t95.5 80.5v351q-32 49 -95.5 80.5t-129.5 31.5
q-111 0 -180.5 -79.5t-69.5 -208.5q0 -127 70 -207t180 -80z" />
    <glyph glyph-name="Emacron" unicode="&#x112;" horiz-adv-x="1193" 
d="M1102 0h-967v1366h967v-256h-676v-289h661v-256h-661v-309h676v-256zM987 1493h-743v147h743v-147z" />
    <glyph glyph-name="emacron" unicode="&#x113;" horiz-adv-x="1132" 
d="M594 -25q-229 0 -378.5 143.5t-149.5 377.5q0 143 64.5 261t182.5 187.5t265 69.5q221 0 358 -151t137 -394v-57h-735q13 -99 88.5 -164.5t196.5 -65.5q66 0 142 27.5t122 71.5l114 -168q-72 -66 -180.5 -102t-226.5 -36zM821 588q-2 38 -16.5 74.5t-42 70t-75.5 54
t-109 20.5q-58 0 -104.5 -20t-74.5 -53t-44 -70t-21 -76h487zM948 1151h-743v147h743v-147z" />
    <glyph glyph-name="Ebreve" unicode="&#x114;" horiz-adv-x="1193" 
d="M1102 0h-967v1366h967v-256h-676v-289h661v-256h-661v-309h676v-256zM977 1610q-62 -84 -156 -132t-203 -48q-107 0 -201.5 48t-158.5 132l115 96q90 -127 245 -127q154 0 244 127z" />
    <glyph glyph-name="ebreve" unicode="&#x115;" horiz-adv-x="1132" 
d="M594 -25q-229 0 -378.5 143.5t-149.5 377.5q0 143 64.5 261t182.5 187.5t265 69.5q221 0 358 -151t137 -394v-57h-735q13 -99 88.5 -164.5t196.5 -65.5q66 0 142 27.5t122 71.5l114 -168q-72 -66 -180.5 -102t-226.5 -36zM821 588q-2 38 -16.5 74.5t-42 70t-75.5 54
t-109 20.5q-58 0 -104.5 -20t-74.5 -53t-44 -70t-21 -76h487zM940 1268q-63 -85 -156 -133t-202 -48q-107 0 -202 48.5t-159 132.5l115 96q90 -127 246 -127q153 0 243 127z" />
    <glyph glyph-name="Edotaccent" unicode="&#x116;" horiz-adv-x="1193" 
d="M1102 0h-967v1366h967v-256h-676v-289h661v-256h-661v-309h676v-256zM621 1454q-59 0 -99.5 40.5t-40.5 98.5q0 57 41 98.5t99 41.5q56 0 96.5 -41.5t40.5 -98.5q0 -58 -40.5 -98.5t-96.5 -40.5z" />
    <glyph glyph-name="edotaccent" unicode="&#x117;" horiz-adv-x="1132" 
d="M594 -25q-229 0 -378.5 143.5t-149.5 377.5q0 143 64.5 261t182.5 187.5t265 69.5q221 0 358 -151t137 -394v-57h-735q13 -99 88.5 -164.5t196.5 -65.5q66 0 142 27.5t122 71.5l114 -168q-72 -66 -180.5 -102t-226.5 -36zM821 588q-2 38 -16.5 74.5t-42 70t-75.5 54
t-109 20.5q-58 0 -104.5 -20t-74.5 -53t-44 -70t-21 -76h487zM584 1112q-59 0 -99.5 40.5t-40.5 98.5q0 57 41 98.5t99 41.5q56 0 96.5 -41.5t40.5 -98.5q0 -58 -40.5 -98.5t-96.5 -40.5z" />
    <glyph glyph-name="Eogonek" unicode="&#x118;" horiz-adv-x="1193" 
d="M1102 0q-144 -72 -144 -184q0 -44 22 -66t54 -22q64 0 88 71l105 -65q-64 -115 -193 -115q-89 0 -147 45.5t-58 138.5q0 113 93 197h-787v1366h967v-256h-676v-289h661v-256h-661v-309h676v-256z" />
    <glyph glyph-name="eogonek" unicode="&#x119;" horiz-adv-x="1132" 
d="M805 -201l104 -65q-64 -115 -192 -115q-89 0 -147 45.5t-58 138.5q0 95 68 172q-225 5 -369.5 147.5t-144.5 373.5q0 143 64.5 261t182.5 187.5t265 69.5q221 0 358 -151t137 -394v-57h-735q13 -99 88.5 -164.5t196.5 -65.5q66 0 142 27.5t122 71.5l114 -168
q-82 -76 -217 -113q-143 -72 -143 -184q0 -44 22 -66t54 -22q64 0 88 71zM821 588q-2 38 -16.5 74.5t-42 70t-75.5 54t-109 20.5q-58 0 -104.5 -20t-74.5 -53t-44 -70t-21 -76h487z" />
    <glyph glyph-name="Ecaron" unicode="&#x11a;" horiz-adv-x="1193" 
d="M741 1481h-233l-195 295h160l152 -185l143 185h160zM1102 0h-967v1366h967v-256h-676v-289h661v-256h-661v-309h676v-256z" />
    <glyph glyph-name="ecaron" unicode="&#x11b;" horiz-adv-x="1132" 
d="M698 1139h-233l-195 295h160l152 -185l143 185h160zM594 -25q-229 0 -378.5 143.5t-149.5 377.5q0 143 64.5 261t182.5 187.5t265 69.5q221 0 358 -151t137 -394v-57h-735q13 -99 88.5 -164.5t196.5 -65.5q66 0 142 27.5t122 71.5l114 -168q-72 -66 -180.5 -102
t-226.5 -36zM821 588q-2 38 -16.5 74.5t-42 70t-75.5 54t-109 20.5q-58 0 -104.5 -20t-74.5 -53t-44 -70t-21 -76h487z" />
    <glyph glyph-name="Gcircumflex" unicode="&#x11c;" horiz-adv-x="1474" 
d="M1110 1481h-160l-149 182l-146 -182h-159l188 295h234zM797 -27q-149 0 -282 51t-231.5 141.5t-156 224.5t-57.5 292q0 210 99 373t263.5 248.5t364.5 85.5q199 0 339 -85t226 -221l-242 -131q-49 77 -134.5 127.5t-188.5 50.5q-186 0 -307 -127t-121 -321t121 -321.5
t307 -127.5q85 0 164.5 31.5t125.5 73.5v164h-360v254h651v-525q-230 -258 -581 -258z" />
    <glyph glyph-name="gcircumflex" unicode="&#x11d;" horiz-adv-x="1198" 
d="M918 1139h-160l-150 182l-145 -182h-160l189 295h233zM535 -401q-132 0 -233.5 33.5t-192.5 113.5l116 188q111 -122 310 -122q51 0 96 12t86 39t65.5 77.5t24.5 120.5v101q-124 -156 -305 -156q-193 0 -314.5 132t-121.5 372q0 237 121.5 370.5t314.5 133.5
q183 0 305 -152v127h262v-921q0 -109 -32.5 -193t-84.5 -135t-124 -84t-143 -45t-150 -12zM584 238q64 0 127 32t96 80v320q-32 49 -95 80.5t-128 31.5q-112 0 -181 -73t-69 -199t69 -199t181 -73z" />
    <glyph glyph-name="Gbreve" unicode="&#x11e;" horiz-adv-x="1474" 
d="M797 -27q-149 0 -282 51t-231.5 141.5t-156 224.5t-57.5 292q0 210 99 373t263.5 248.5t364.5 85.5q199 0 339 -85t226 -221l-242 -131q-49 77 -134.5 127.5t-188.5 50.5q-186 0 -307 -127t-121 -321t121 -321.5t307 -127.5q85 0 164.5 31.5t125.5 73.5v164h-360v254h651
v-525q-230 -258 -581 -258zM1159 1610q-62 -84 -155.5 -132t-202.5 -48q-108 0 -202.5 48t-158.5 132l115 96q90 -127 246 -127q153 0 243 127z" />
    <glyph glyph-name="gbreve" unicode="&#x11f;" horiz-adv-x="1198" 
d="M535 -401q-132 0 -233.5 33.5t-192.5 113.5l116 188q111 -122 310 -122q51 0 96 12t86 39t65.5 77.5t24.5 120.5v101q-124 -156 -305 -156q-193 0 -314.5 132t-121.5 372q0 237 121.5 370.5t314.5 133.5q183 0 305 -152v127h262v-921q0 -109 -32.5 -193t-84.5 -135
t-124 -84t-143 -45t-150 -12zM584 238q64 0 127 32t96 80v320q-32 49 -95 80.5t-128 31.5q-112 0 -181 -73t-69 -199t69 -199t181 -73zM961 1268q-62 -85 -156 -133t-203 -48q-107 0 -201.5 48.5t-158.5 132.5l114 96q90 -127 246 -127q154 0 244 127z" />
    <glyph glyph-name="Gdotaccent" unicode="&#x120;" horiz-adv-x="1474" 
d="M797 -27q-149 0 -282 51t-231.5 141.5t-156 224.5t-57.5 292q0 210 99 373t263.5 248.5t364.5 85.5q199 0 339 -85t226 -221l-242 -131q-49 77 -134.5 127.5t-188.5 50.5q-186 0 -307 -127t-121 -321t121 -321.5t307 -127.5q85 0 164.5 31.5t125.5 73.5v164h-360v254h651
v-525q-230 -258 -581 -258zM801 1454q-59 0 -99 40t-40 99q0 57 40.5 98.5t98.5 41.5q56 0 96.5 -41.5t40.5 -98.5q0 -58 -40.5 -98.5t-96.5 -40.5z" />
    <glyph glyph-name="gdotaccent" unicode="&#x121;" horiz-adv-x="1198" 
d="M535 -401q-132 0 -233.5 33.5t-192.5 113.5l116 188q111 -122 310 -122q51 0 96 12t86 39t65.5 77.5t24.5 120.5v101q-124 -156 -305 -156q-193 0 -314.5 132t-121.5 372q0 237 121.5 370.5t314.5 133.5q183 0 305 -152v127h262v-921q0 -109 -32.5 -193t-84.5 -135
t-124 -84t-143 -45t-150 -12zM584 238q64 0 127 32t96 80v320q-32 49 -95 80.5t-128 31.5q-112 0 -181 -73t-69 -199t69 -199t181 -73zM610 1112q-58 0 -98.5 40t-40.5 99q0 57 40.5 98.5t98.5 41.5q56 0 97 -41.5t41 -98.5q0 -58 -41 -98.5t-97 -40.5z" />
    <glyph glyph-name="Gcommaaccent" unicode="&#x122;" horiz-adv-x="1474" 
d="M944 -283q0 -91 -46 -171t-124 -136l-90 72q43 24 81.5 71.5t47.5 90.5q-8 -4 -31 -4q-46 0 -77 32t-31 82q0 54 36.5 91.5t88.5 37.5q60 0 102.5 -45t42.5 -121zM797 -27q-149 0 -282 51t-231.5 141.5t-156 224.5t-57.5 292q0 210 99 373t263.5 248.5t364.5 85.5
q199 0 339 -85t226 -221l-242 -131q-49 77 -134.5 127.5t-188.5 50.5q-186 0 -307 -127t-121 -321t121 -321.5t307 -127.5q85 0 164.5 31.5t125.5 73.5v164h-360v254h651v-525q-230 -258 -581 -258z" />
    <glyph glyph-name="gcommaaccent" unicode="&#x123;" horiz-adv-x="1198" 
d="M469 1251q0 98 43 182t121 138l88 -72q-42 -25 -81.5 -69.5t-45.5 -83.5q2 0 6.5 1t7.5 1q46 0 84.5 -35t38.5 -86q0 -53 -38 -92t-93 -39q-49 0 -90 37.5t-41 117.5zM535 -401q-132 0 -233.5 33.5t-192.5 113.5l116 188q111 -122 310 -122q51 0 96 12t86 39t65.5 77.5
t24.5 120.5v101q-124 -156 -305 -156q-193 0 -314.5 132t-121.5 372q0 237 121.5 370.5t314.5 133.5q183 0 305 -152v127h262v-921q0 -109 -32.5 -193t-84.5 -135t-124 -84t-143 -45t-150 -12zM584 238q64 0 127 32t96 80v320q-32 49 -95 80.5t-128 31.5q-112 0 -181 -73
t-69 -199t69 -199t181 -73z" />
    <glyph glyph-name="Hcircumflex" unicode="&#x124;" horiz-adv-x="1497" 
d="M1053 1481h-160l-150 182l-145 -182h-160l189 295h233zM1364 0h-293v573h-645v-573h-291v1366h291v-537h645v537h293v-1366z" />
    <glyph glyph-name="hcircumflex" unicode="&#x125;" horiz-adv-x="1187" 
d="M903 1481h-160l-149 182l-145 -182h-160l188 295h234zM1059 0h-260v602q0 98 -47.5 139t-137.5 41q-70 0 -128.5 -33.5t-96.5 -82.5v-666h-260v1366h260v-506q53 64 144 109t204 45q160 0 241 -82t81 -230v-702z" />
    <glyph glyph-name="Hbar" unicode="&#x126;" horiz-adv-x="1531" 
d="M1380 0h-293v573h-645v-573h-290v1020h-136v147h136v199h290v-199h645v199h293v-199h133v-147h-133v-1020zM442 829h645v191h-645v-191z" />
    <glyph glyph-name="hbar" unicode="&#x127;" horiz-adv-x="1196" 
d="M694 1081h-297v-221q53 64 144 109t204 45q160 0 241 -82t81 -230v-702h-260v602q0 98 -47 139t-137 41q-70 0 -129 -33.5t-97 -82.5v-666h-260v1081h-121v148h121v137h260v-137h297v-148z" />
    <glyph glyph-name="Itilde" unicode="&#x128;" horiz-adv-x="561" 
d="M426 0h-291v1366h291v-1366zM399 1477q-39 0 -70.5 14.5t-52 35t-38 40.5t-37.5 34.5t-41 14.5q-33 0 -53.5 -32t-20.5 -95h-137q0 131 57 202.5t164 71.5q46 0 83 -21.5t57.5 -47t46.5 -47t51 -21.5q33 0 53 31.5t20 93.5h137q0 -131 -56 -202.5t-163 -71.5z" />
    <glyph glyph-name="itilde" unicode="&#x129;" horiz-adv-x="518" 
d="M389 0h-260v989h260v-989zM375 1135q-39 0 -70.5 14.5t-52 35t-38.5 40.5t-38 34.5t-41 14.5q-33 0 -53.5 -32t-20.5 -95h-137q0 131 57 202.5t164 71.5q46 0 83 -21.5t57.5 -47t46.5 -47t51 -21.5q33 0 53.5 31.5t20.5 93.5h137q0 -131 -56 -202.5t-163 -71.5z" />
    <glyph glyph-name="Imacron" unicode="&#x12a;" horiz-adv-x="561" 
d="M426 0h-291v1366h291v-1366zM653 1493h-743v147h743v-147z" />
    <glyph glyph-name="imacron" unicode="&#x12b;" horiz-adv-x="518" 
d="M389 0h-260v989h260v-989zM631 1151h-744v147h744v-147z" />
    <glyph glyph-name="Ibreve" unicode="&#x12c;" horiz-adv-x="561" 
d="M426 0h-291v1366h291v-1366zM645 1610q-62 -84 -155.5 -132t-202.5 -48q-108 0 -202.5 48t-158.5 132l115 96q90 -127 246 -127q153 0 243 127z" />
    <glyph glyph-name="ibreve" unicode="&#x12d;" horiz-adv-x="518" 
d="M389 0h-260v989h260v-989zM618 1268q-63 -85 -156 -133t-202 -48q-107 0 -201.5 48.5t-158.5 132.5l114 96q90 -127 246 -127q154 0 244 127z" />
    <glyph glyph-name="Iogonek" unicode="&#x12e;" horiz-adv-x="561" 
d="M446 -201l105 -65q-64 -115 -193 -115q-89 0 -146.5 45.5t-57.5 138.5q0 114 92 197h-111v1366h291v-1366q-143 -72 -143 -184q0 -44 21.5 -66t53.5 -22q64 0 88 71z" />
    <glyph glyph-name="iogonek" unicode="&#x12f;" horiz-adv-x="518" 
d="M410 -201l104 -65q-64 -115 -192 -115q-89 0 -147 45.5t-58 138.5q0 114 92 197h-80v989h260v-989q-143 -72 -143 -184q0 -44 22 -66t54 -22q64 0 88 71zM258 1096q-63 0 -109.5 45.5t-46.5 109.5t46 109t110 45q65 0 110.5 -45t45.5 -109t-45.5 -109.5t-110.5 -45.5z
" />
    <glyph glyph-name="Idotaccent" unicode="&#x130;" horiz-adv-x="561" 
d="M426 0h-291v1366h291v-1366zM285 1454q-59 0 -99.5 40.5t-40.5 98.5q0 57 41 98.5t99 41.5q56 0 96.5 -41.5t40.5 -98.5q0 -58 -40.5 -98.5t-96.5 -40.5z" />
    <glyph glyph-name="dotlessi" unicode="&#x131;" horiz-adv-x="518" 
d="M389 0h-260v989h260v-989z" />
    <glyph glyph-name="IJ" unicode="&#x132;" horiz-adv-x="1556" 
d="M426 0h-291v1366h291v-1366zM940 -25q-230 0 -367 134l127 223q103 -99 218 -99q97 0 154.5 60t57.5 160v913h291v-917q0 -158 -62.5 -266t-168.5 -158t-250 -50z" />
    <glyph glyph-name="ij" unicode="&#x133;" horiz-adv-x="1034" 
d="M258 1096q-63 0 -109.5 45.5t-46.5 109.5t46 109t110 45q65 0 110.5 -45t45.5 -109t-45.5 -109.5t-110.5 -45.5zM389 0h-260v989h260v-989zM776 1096q-63 0 -109 45.5t-46 109.5t46 109t109 45q65 0 110.5 -45t45.5 -109t-45.5 -109.5t-110.5 -45.5zM555 -401
q-90 0 -140.5 15t-107.5 54l72 195q60 -51 133 -51q62 0 98.5 40.5t36.5 120.5v1016h260v-1016q0 -174 -89 -274t-263 -100z" />
    <glyph glyph-name="Jcircumflex" unicode="&#x134;" horiz-adv-x="995" 
d="M1024 1481h-160l-149 182l-146 -182h-159l188 295h233zM379 -25q-230 0 -367 134l127 223q103 -99 217 -99q97 0 155 60t58 160v913h291v-917q0 -158 -62.5 -266t-168.5 -158t-250 -50z" />
    <glyph glyph-name="jcircumflex" unicode="&#x135;" horiz-adv-x="518" 
d="M571 1139h-159l-150 182l-145 -182h-160l188 295h234zM37 -401q-90 0 -140.5 15t-107.5 54l72 201q62 -49 133 -49q62 0 98.5 39.5t36.5 113.5v1016h260v-1016q0 -174 -89 -274t-263 -100z" />
    <glyph glyph-name="Kcommaaccent" unicode="&#x136;" horiz-adv-x="1327" 
d="M809 -283q0 -91 -46 -171t-124 -136l-90 72q43 24 81.5 71.5t47.5 90.5q-8 -4 -31 -4q-46 0 -77 32t-31 82q0 54 36.5 91.5t88.5 37.5q60 0 102.5 -45t42.5 -121zM1305 0h-359l-414 547l-106 -127v-420h-291v1366h291v-610l483 610h359l-543 -641z" />
    <glyph glyph-name="kcommaaccent" unicode="&#x137;" horiz-adv-x="1095" 
d="M694 -283q0 -91 -46 -171t-124 -136l-90 72q43 24 81.5 71.5t47.5 90.5q-8 -4 -31 -4q-46 0 -77 32t-31 82q0 54 36.5 91.5t88.5 37.5q60 0 102.5 -45t42.5 -121zM1096 0h-326l-262 381l-119 -127v-254h-260v1366h260v-817l375 440h319l-391 -448z" />
    <glyph glyph-name="kgreenlandic" unicode="&#x138;" horiz-adv-x="1095" 
d="M1096 0h-326l-262 381l-119 -127v-254h-260v989h260v-440l375 440h319l-391 -448z" />
    <glyph glyph-name="Lacute" unicode="&#x139;" horiz-adv-x="1071" 
d="M952 1776l-331 -295h-183l275 295h239zM1004 0h-869v1366h291v-1110h578v-256z" />
    <glyph glyph-name="lacute" unicode="&#x13a;" horiz-adv-x="518" 
d="M643 1776l-332 -295h-182l274 295h240zM389 0h-260v1366h260v-1366z" />
    <glyph glyph-name="Lcommaaccent" unicode="&#x13b;" horiz-adv-x="1071" 
d="M678 -283q0 -91 -46 -171t-124 -136l-90 72q43 24 81.5 71.5t47.5 90.5q-8 -4 -31 -4q-46 0 -77 32t-31 82q0 54 36 91.5t88 37.5q60 0 103 -45t43 -121zM1004 0h-869v1366h291v-1110h578v-256z" />
    <glyph glyph-name="lcommaaccent" unicode="&#x13c;" horiz-adv-x="518" 
d="M406 -283q0 -91 -46 -171t-124 -136l-91 72q43 24 81.5 71.5t47.5 90.5q-8 -4 -30 -4q-46 0 -77.5 32t-31.5 82q0 54 36.5 91.5t88.5 37.5q60 0 103 -45t43 -121zM389 0h-260v1366h260v-1366z" />
    <glyph glyph-name="Lcaron" unicode="&#x13d;" horiz-adv-x="1071" 
d="M862 1227q0 -91 -46 -171t-124 -136l-90 71q43 24 81.5 71.5t47.5 90.5q-8 -4 -31 -4q-46 0 -77 32.5t-31 82.5q0 54 36.5 91.5t88.5 37.5q60 0 102.5 -45t42.5 -121zM1004 0h-869v1366h291v-1110h578v-256z" />
    <glyph glyph-name="lcaron" unicode="&#x13e;" horiz-adv-x="724" 
d="M764 1227q0 -91 -46 -171t-124 -136l-90 71q43 24 81.5 71.5t47.5 90.5q-8 -4 -31 -4q-46 0 -77 32.5t-31 82.5q0 54 36 91.5t88 37.5q60 0 103 -45t43 -121zM389 0h-260v1366h260v-1366z" />
    <glyph glyph-name="Ldot" unicode="&#x13f;" horiz-adv-x="1110" 
d="M1004 0h-869v1366h291v-1110h578v-256zM999 698q0 -66 -49 -114.5t-116 -48.5t-116.5 48.5t-49.5 114.5q0 68 49 117t117 49q67 0 116 -49t49 -117z" />
    <glyph glyph-name="ldot" unicode="&#x140;" horiz-adv-x="786" 
d="M389 0h-260v1366h260v-1366zM817 500q0 -66 -49.5 -115t-116.5 -49t-116.5 49t-49.5 115q0 68 49.5 117t116.5 49t116.5 -49t49.5 -117z" />
    <glyph glyph-name="Lslash" unicode="&#x141;" horiz-adv-x="1099" 
d="M16 393v238l148 84v651h291v-483l157 90v-238l-157 -90v-389h577v-256h-868v477z" />
    <glyph glyph-name="lslash" unicode="&#x142;" horiz-adv-x="630" 
d="M16 418v190l170 97v661h260v-512l166 96v-190l-166 -96v-664h-260v514z" />
    <glyph glyph-name="Nacute" unicode="&#x143;" horiz-adv-x="1492" 
d="M1130 1776l-331 -295h-183l275 295h239zM1358 0h-281l-651 891v-891h-291v1366h299l633 -858v858h291v-1366z" />
    <glyph glyph-name="nacute" unicode="&#x144;" 
d="M977 1434l-332 -295h-182l274 295h240zM1057 0h-260v598q0 98 -47.5 141t-135.5 43q-71 0 -130 -33.5t-95 -82.5v-666h-260v989h260v-129q54 65 144 109.5t202 44.5q159 0 240.5 -83.5t81.5 -232.5v-698z" />
    <glyph glyph-name="Ncommaaccent" unicode="&#x145;" horiz-adv-x="1492" 
d="M893 -283q0 -91 -46 -171t-124 -136l-90 72q43 24 81.5 71.5t47.5 90.5q-8 -4 -31 -4q-46 0 -77 32t-31 82q0 54 36.5 91.5t88.5 37.5q60 0 102.5 -45t42.5 -121zM1358 0h-281l-651 891v-891h-291v1366h299l633 -858v858h291v-1366z" />
    <glyph glyph-name="ncommaaccent" unicode="&#x146;" 
d="M733 -283q0 -91 -46 -171t-124 -136l-90 72q43 24 81.5 71.5t47.5 90.5q-8 -4 -31 -4q-46 0 -77 32t-31 82q0 54 36.5 91.5t88.5 37.5q60 0 102.5 -45t42.5 -121zM1057 0h-260v598q0 98 -47.5 141t-135.5 43q-71 0 -130 -33.5t-95 -82.5v-666h-260v989h260v-129
q54 65 144 109.5t202 44.5q159 0 240.5 -83.5t81.5 -232.5v-698z" />
    <glyph glyph-name="Ncaron" unicode="&#x147;" horiz-adv-x="1492" 
d="M864 1481h-233l-195 295h160l152 -185l143 185h160zM1358 0h-281l-651 891v-891h-291v1366h299l633 -858v858h291v-1366z" />
    <glyph glyph-name="ncaron" unicode="&#x148;" 
d="M715 1139h-234l-194 295h159l152 -185l143 185h160zM1057 0h-260v598q0 98 -47.5 141t-135.5 43q-71 0 -130 -33.5t-95 -82.5v-666h-260v989h260v-129q54 65 144 109.5t202 44.5q159 0 240.5 -83.5t81.5 -232.5v-698z" />
    <glyph glyph-name="napostrophe" unicode="&#x149;" 
d="M360 1399q0 -91 -46 -171t-124 -136l-90 71q43 24 81.5 71.5t47.5 90.5q-8 -4 -30 -4q-46 0 -77.5 32.5t-31.5 82.5q0 54 36.5 91.5t88.5 37.5q60 0 102.5 -45t42.5 -121zM1057 0h-260v598q0 98 -47.5 141t-135.5 43q-71 0 -130 -33.5t-95 -82.5v-666h-260v989h260v-129
q54 65 144 109.5t202 44.5q159 0 240.5 -83.5t81.5 -232.5v-698z" />
    <glyph glyph-name="Eng" unicode="&#x14a;" horiz-adv-x="1492" 
d="M877 -401q-230 0 -369 133l129 223q98 -98 217 -98q82 0 137 43.5t70 119.5l-635 871v-891h-291v1366h299l633 -858v858h291v-1296q0 -233 -130.5 -352t-350.5 -119z" />
    <glyph glyph-name="eng" unicode="&#x14b;" 
d="M1057 698v-725q0 -174 -88.5 -274t-263.5 -100q-88 0 -138.5 15t-105.5 54l69 211q62 -49 132 -49q63 0 99 37t36 106v625q0 98 -47.5 141t-135.5 43q-71 0 -130 -33.5t-95 -82.5v-666h-260v989h260v-129q54 65 144 109.5t202 44.5q159 0 240.5 -83.5t81.5 -232.5z" />
    <glyph glyph-name="Omacron" unicode="&#x14c;" horiz-adv-x="1566" 
d="M1153 1493h-743v147h743v-147zM782 -25q-152 0 -284.5 53t-226.5 145.5t-147.5 224.5t-53.5 284t53.5 284t147.5 224.5t226.5 145.5t284.5 53q205 0 368 -90t255 -252t92 -365t-92 -365t-255 -252t-368 -90zM782 233q186 0 301 127.5t115 321.5q0 195 -115 321.5
t-301 126.5t-299.5 -126.5t-113.5 -321.5q0 -194 113.5 -321.5t299.5 -127.5z" />
    <glyph glyph-name="omacron" unicode="&#x14d;" horiz-adv-x="1175" 
d="M961 1151h-744v147h744v-147zM588 -25q-158 0 -278.5 71.5t-182 189t-61.5 260.5q0 142 61.5 258.5t182 188t278.5 71.5q159 0 280 -71.5t182.5 -188t61.5 -258.5q0 -106 -36.5 -200.5t-102 -166t-165.5 -113t-220 -41.5zM588 207q117 0 185.5 83.5t68.5 205.5
q0 121 -68.5 203.5t-185.5 82.5t-184.5 -82.5t-67.5 -203.5q0 -122 67.5 -205.5t184.5 -83.5z" />
    <glyph glyph-name="Obreve" unicode="&#x14e;" horiz-adv-x="1566" 
d="M782 -25q-152 0 -284.5 53t-226.5 145.5t-147.5 224.5t-53.5 284t53.5 284t147.5 224.5t226.5 145.5t284.5 53q205 0 368 -90t255 -252t92 -365t-92 -365t-255 -252t-368 -90zM782 233q186 0 301 127.5t115 321.5q0 195 -115 321.5t-301 126.5t-299.5 -126.5
t-113.5 -321.5q0 -194 113.5 -321.5t299.5 -127.5zM1141 1610q-62 -84 -156 -132t-203 -48q-107 0 -201.5 48t-158.5 132l115 96q90 -127 245 -127q154 0 244 127z" />
    <glyph glyph-name="obreve" unicode="&#x14f;" horiz-adv-x="1175" 
d="M588 -25q-158 0 -278.5 71.5t-182 189t-61.5 260.5q0 142 61.5 258.5t182 188t278.5 71.5q159 0 280 -71.5t182.5 -188t61.5 -258.5q0 -106 -36.5 -200.5t-102 -166t-165.5 -113t-220 -41.5zM588 207q117 0 185.5 83.5t68.5 205.5q0 121 -68.5 203.5t-185.5 82.5
t-184.5 -82.5t-67.5 -203.5q0 -122 67.5 -205.5t184.5 -83.5zM946 1268q-63 -85 -156 -133t-202 -48q-107 0 -202 48.5t-159 132.5l115 96q90 -127 246 -127q153 0 243 127z" />
    <glyph glyph-name="Ohungarumlaut" unicode="&#x150;" horiz-adv-x="1566" 
d="M920 1776l-236 -295h-152l179 295h209zM1225 1776l-236 -295h-151l178 295h209zM782 -25q-152 0 -284.5 53t-226.5 145.5t-147.5 224.5t-53.5 284t53.5 284t147.5 224.5t226.5 145.5t284.5 53q205 0 368 -90t255 -252t92 -365t-92 -365t-255 -252t-368 -90zM782 233
q186 0 301 127.5t115 321.5q0 195 -115 321.5t-301 126.5t-299.5 -126.5t-113.5 -321.5q0 -194 113.5 -321.5t299.5 -127.5z" />
    <glyph glyph-name="ohungarumlaut" unicode="&#x151;" horiz-adv-x="1175" 
d="M723 1434l-236 -295h-151l178 295h209zM1028 1434l-235 -295h-152l178 295h209zM588 -25q-158 0 -278.5 71.5t-182 189t-61.5 260.5q0 142 61.5 258.5t182 188t278.5 71.5q159 0 280 -71.5t182.5 -188t61.5 -258.5q0 -106 -36.5 -200.5t-102 -166t-165.5 -113t-220 -41.5
zM588 207q117 0 185.5 83.5t68.5 205.5q0 121 -68.5 203.5t-185.5 82.5t-184.5 -82.5t-67.5 -203.5q0 -122 67.5 -205.5t184.5 -83.5z" />
    <glyph glyph-name="OE" unicode="&#x152;" horiz-adv-x="2220" 
d="M2132 0h-967v160q-66 -89 -179.5 -137t-231.5 -48q-196 0 -352.5 90t-244 251.5t-87.5 365.5t88 365t244 250t352 89q119 0 232 -47t179 -135v162h967v-256h-674v-289h660v-256h-660v-309h674v-256zM1165 471v422q-49 115 -146 175t-224 60q-195 0 -310.5 -125
t-115.5 -321q0 -195 116 -322t310 -127q125 0 223 62.5t147 175.5z" />
    <glyph glyph-name="oe" unicode="&#x153;" horiz-adv-x="1906" 
d="M1847 412h-733q14 -97 89 -163.5t196 -66.5q69 0 141 26.5t121 70.5l117 -166q-73 -66 -182 -102t-226 -36q-78 0 -143.5 19.5t-113 55t-79 68.5t-61.5 77q-30 -42 -60.5 -75t-77.5 -69t-110.5 -56t-136.5 -20q-158 0 -278.5 71.5t-182 189t-61.5 260.5q0 142 61.5 258.5
t182 188t278.5 71.5q73 0 136.5 -20t111 -56.5t78 -69t61.5 -75.5q140 221 379 221q221 0 357 -151t136 -394v-57zM1110 588h487q-2 38 -17 74.5t-42.5 70t-76 54t-109.5 20.5q-57 0 -103.5 -20t-74.5 -53t-44 -70t-20 -76zM842 496q0 127 -69.5 206.5t-184.5 79.5
q-113 0 -182.5 -79.5t-69.5 -206.5q0 -128 69.5 -209.5t182.5 -81.5q115 0 184.5 81t69.5 210z" />
    <glyph glyph-name="Racute" unicode="&#x154;" horiz-adv-x="1316" 
d="M1059 1776l-332 -295h-182l274 295h240zM1241 0h-334l-268 485h-213v-485h-291v1366h639q210 0 334.5 -123t124.5 -317q0 -87 -25.5 -160t-69 -121.5t-95 -79.5t-109.5 -45zM731 741q90 0 147.5 50t57.5 135t-57.5 134.5t-147.5 49.5h-305v-369h305z" />
    <glyph glyph-name="racute" unicode="&#x155;" horiz-adv-x="737" 
d="M801 1434l-332 -295h-182l274 295h240zM389 0h-260v989h260v-135q55 69 141 114.5t175 45.5v-254q-27 6 -72 6q-66 0 -139 -33.5t-105 -79.5v-653z" />
    <glyph glyph-name="Rcommaaccent" unicode="&#x156;" horiz-adv-x="1316" 
d="M811 -283q0 -91 -46 -171t-124 -136l-90 72q43 24 81.5 71.5t47.5 90.5q-8 -4 -31 -4q-46 0 -77 32t-31 82q0 54 36.5 91.5t88.5 37.5q60 0 102.5 -45t42.5 -121zM1241 0h-334l-268 485h-213v-485h-291v1366h639q210 0 334.5 -123t124.5 -317q0 -87 -25.5 -160
t-69 -121.5t-95 -79.5t-109.5 -45zM731 741q90 0 147.5 50t57.5 135t-57.5 134.5t-147.5 49.5h-305v-369h305z" />
    <glyph glyph-name="rcommaaccent" unicode="&#x157;" horiz-adv-x="737" 
d="M514 -283q0 -91 -46 -171t-124 -136l-90 72q43 24 81.5 71.5t47.5 90.5q-8 -4 -31 -4q-46 0 -77 32t-31 82q0 54 36.5 91.5t88.5 37.5q60 0 102.5 -45t42.5 -121zM389 0h-260v989h260v-135q55 69 141 114.5t175 45.5v-254q-27 6 -72 6q-66 0 -139 -33.5t-105 -79.5v-653z
" />
    <glyph glyph-name="Rcaron" unicode="&#x158;" horiz-adv-x="1316" 
d="M784 1481h-233l-195 295h160l152 -185l143 185h160zM1241 0h-334l-268 485h-213v-485h-291v1366h639q210 0 334.5 -123t124.5 -317q0 -87 -25.5 -160t-69 -121.5t-95 -79.5t-109.5 -45zM731 741q90 0 147.5 50t57.5 135t-57.5 134.5t-147.5 49.5h-305v-369h305z" />
    <glyph glyph-name="rcaron" unicode="&#x159;" horiz-adv-x="737" 
d="M535 1139h-234l-195 295h160l152 -185l143 185h160zM389 0h-260v989h260v-135q55 69 141 114.5t175 45.5v-254q-27 6 -72 6q-66 0 -139 -33.5t-105 -79.5v-653z" />
    <glyph glyph-name="Sacute" unicode="&#x15a;" horiz-adv-x="1228" 
d="M995 1776l-331 -295h-183l275 295h239zM621 -25q-363 0 -578 218l158 221q79 -82 190 -133.5t244 -51.5q114 0 175.5 44.5t61.5 107.5q0 38 -27 66.5t-72.5 46.5t-104.5 33t-124 30.5t-130 35t-124 51t-104.5 73.5t-72.5 107t-27 147q0 176 141.5 295.5t376.5 119.5
q328 0 533 -190l-162 -213q-81 74 -185 112t-212 38q-92 0 -143.5 -37.5t-51.5 -100.5q0 -38 33.5 -66.5t89 -44t126 -34t143.5 -36t143.5 -50t126 -75t89 -113.5t33.5 -162q0 -196 -139.5 -317.5t-406.5 -121.5z" />
    <glyph glyph-name="sacute" unicode="&#x15b;" horiz-adv-x="976" 
d="M870 1434l-331 -295h-183l275 295h239zM485 -25q-129 0 -246.5 41t-195.5 113l113 182q57 -54 155.5 -94.5t186.5 -40.5q82 0 124 29.5t42 77.5q0 33 -32.5 54t-84.5 33t-114.5 23.5t-125 32t-114.5 51.5t-84.5 88.5t-32.5 136.5q0 131 109 221.5t296 90.5
q230 0 400 -135l-105 -179q-46 49 -126 82t-167 33q-69 0 -112 -28t-43 -70q0 -29 32.5 -48t84 -31t113.5 -23.5t124.5 -33.5t114 -54.5t84 -92.5t32.5 -141q0 -139 -114 -228.5t-314 -89.5z" />
    <glyph glyph-name="Scircumflex" unicode="&#x15c;" horiz-adv-x="1228" 
d="M907 1481h-159l-150 182l-145 -182h-160l188 295h234zM621 -25q-363 0 -578 218l158 221q79 -82 190 -133.5t244 -51.5q114 0 175.5 44.5t61.5 107.5q0 38 -27 66.5t-72.5 46.5t-104.5 33t-124 30.5t-130 35t-124 51t-104.5 73.5t-72.5 107t-27 147q0 176 141.5 295.5
t376.5 119.5q328 0 533 -190l-162 -213q-81 74 -185 112t-212 38q-92 0 -143.5 -37.5t-51.5 -100.5q0 -38 33.5 -66.5t89 -44t126 -34t143.5 -36t143.5 -50t126 -75t89 -113.5t33.5 -162q0 -196 -139.5 -317.5t-406.5 -121.5z" />
    <glyph glyph-name="scircumflex" unicode="&#x15d;" horiz-adv-x="976" 
d="M793 1139h-160l-150 182l-145 -182h-160l189 295h233zM485 -25q-129 0 -246.5 41t-195.5 113l113 182q57 -54 155.5 -94.5t186.5 -40.5q82 0 124 29.5t42 77.5q0 33 -32.5 54t-84.5 33t-114.5 23.5t-125 32t-114.5 51.5t-84.5 88.5t-32.5 136.5q0 131 109 221.5t296 90.5
q230 0 400 -135l-105 -179q-46 49 -126 82t-167 33q-69 0 -112 -28t-43 -70q0 -29 32.5 -48t84 -31t113.5 -23.5t124.5 -33.5t114 -54.5t84 -92.5t32.5 -141q0 -139 -114 -228.5t-314 -89.5z" />
    <glyph glyph-name="Scedilla" unicode="&#x15e;" horiz-adv-x="1228" 
d="M598 -401q-70 0 -130.5 18.5t-94.5 46.5l51 105q78 -60 166 -60q44 0 75 18t31 50q0 53 -59 53q-37 0 -66 -29l-94 54l45 125q-297 28 -479 213l158 221q79 -82 190 -133.5t244 -51.5q114 0 175.5 44.5t61.5 107.5q0 38 -27 66.5t-72.5 46.5t-104.5 33t-124 30.5t-130 35
t-124 51t-104.5 73.5t-72.5 107t-27 147q0 176 141.5 295.5t376.5 119.5q328 0 533 -190l-162 -213q-81 74 -185 112t-212 38q-92 0 -143.5 -37.5t-51.5 -100.5q0 -38 33.5 -66.5t89 -44t126 -34t143.5 -36t143.5 -50t126 -75t89 -113.5t33.5 -162q0 -93 -32.5 -170.5
t-95.5 -136.5t-163.5 -93.5t-228.5 -38.5l-33 -79q33 20 74 20q58 0 97.5 -40t39.5 -103q0 -79 -65.5 -126.5t-161.5 -47.5z" />
    <glyph glyph-name="scedilla" unicode="&#x15f;" horiz-adv-x="976" 
d="M483 -401q-70 0 -130.5 18.5t-94.5 46.5l51 105q78 -60 166 -60q44 0 75.5 18t31.5 50q0 53 -60 53q-36 0 -65 -29l-95 54l46 125q-108 11 -204 49.5t-161 99.5l113 182q57 -54 155.5 -94.5t186.5 -40.5q82 0 124 29.5t42 77.5q0 33 -32.5 54t-84.5 33t-114.5 23.5
t-125 32t-114.5 51.5t-84.5 88.5t-32.5 136.5q0 131 109 221.5t296 90.5q230 0 400 -135l-105 -179q-46 49 -126 82t-167 33q-69 0 -112 -28t-43 -70q0 -29 32.5 -48t84 -31t113.5 -23.5t124.5 -33.5t114 -54.5t84 -92.5t32.5 -141q0 -131 -101 -218.5t-280 -97.5l-32 -81
q33 20 73 20q58 0 98 -40t40 -103q0 -79 -66 -126.5t-162 -47.5z" />
    <glyph glyph-name="Scaron" unicode="&#x160;" horiz-adv-x="1228" 
d="M721 1481h-234l-194 295h160l151 -185l144 185h159zM621 -25q-363 0 -578 218l158 221q79 -82 190 -133.5t244 -51.5q114 0 175.5 44.5t61.5 107.5q0 38 -27 66.5t-72.5 46.5t-104.5 33t-124 30.5t-130 35t-124 51t-104.5 73.5t-72.5 107t-27 147q0 176 141.5 295.5
t376.5 119.5q328 0 533 -190l-162 -213q-81 74 -185 112t-212 38q-92 0 -143.5 -37.5t-51.5 -100.5q0 -38 33.5 -66.5t89 -44t126 -34t143.5 -36t143.5 -50t126 -75t89 -113.5t33.5 -162q0 -196 -139.5 -317.5t-406.5 -121.5z" />
    <glyph glyph-name="scaron" unicode="&#x161;" horiz-adv-x="976" 
d="M606 1139h-233l-195 295h160l151 -185l144 185h160zM485 -25q-129 0 -246.5 41t-195.5 113l113 182q57 -54 155.5 -94.5t186.5 -40.5q82 0 124 29.5t42 77.5q0 33 -32.5 54t-84.5 33t-114.5 23.5t-125 32t-114.5 51.5t-84.5 88.5t-32.5 136.5q0 131 109 221.5t296 90.5
q230 0 400 -135l-105 -179q-46 49 -126 82t-167 33q-69 0 -112 -28t-43 -70q0 -29 32.5 -48t84 -31t113.5 -23.5t124.5 -33.5t114 -54.5t84 -92.5t32.5 -141q0 -139 -114 -228.5t-314 -89.5z" />
    <glyph glyph-name="Tcommaaccent" unicode="&#x162;" horiz-adv-x="1191" 
d="M741 -283q0 -91 -46 -171t-124 -136l-90 72q43 24 81.5 71.5t47.5 90.5q-8 -4 -30 -4q-46 0 -77.5 32t-31.5 82q0 54 36.5 91.5t88.5 37.5q60 0 102.5 -45t42.5 -121zM743 0h-292v1110h-400v256h1090v-256h-398v-1110z" />
    <glyph glyph-name="tcommaaccent" unicode="&#x163;" horiz-adv-x="692" 
d="M492 -283q0 -91 -46 -171t-124 -136l-91 72q43 24 81.5 71.5t47.5 90.5q-8 -4 -30 -4q-46 0 -77.5 32t-31.5 82q0 54 36.5 91.5t88.5 37.5q60 0 103 -45t43 -121zM461 -25q-137 0 -209 69.5t-72 201.5v516h-164v227h164v271h262v-271h201v-227h-201v-447q0 -47 24 -77.5
t66 -30.5q28 0 54 9t37 20l55 -197q-71 -64 -217 -64z" />
    <glyph glyph-name="Tcaron" unicode="&#x164;" horiz-adv-x="1191" 
d="M717 1481h-234l-194 295h160l151 -185l143 185h160zM743 0h-292v1110h-400v256h1090v-256h-398v-1110z" />
    <glyph glyph-name="tcaron" unicode="&#x165;" horiz-adv-x="778" 
d="M823 1399q0 -91 -46 -171t-124 -136l-90 71q43 24 81.5 71.5t47.5 90.5q-8 -4 -30 -4q-46 0 -77.5 32.5t-31.5 82.5q0 54 36.5 91.5t88.5 37.5q60 0 102.5 -45t42.5 -121zM461 -25q-137 0 -209 69.5t-72 201.5v516h-164v227h164v271h262v-271h201v-227h-201v-447
q0 -47 24 -77.5t66 -30.5q28 0 54 9t37 20l55 -197q-71 -64 -217 -64z" />
    <glyph glyph-name="Tbar" unicode="&#x166;" horiz-adv-x="1191" 
d="M743 0h-292v539h-273v147h273v424h-400v256h1090v-256h-398v-424h275v-147h-275v-539z" />
    <glyph glyph-name="tbar" unicode="&#x167;" horiz-adv-x="692" 
d="M461 -25q-137 0 -209 69.5t-72 201.5v182h-164v147h164v187h-164v227h164v271h262v-271h201v-227h-201v-187h140v-147h-140v-113q0 -47 24 -77.5t66 -30.5q28 0 54 9t37 20l55 -197q-71 -64 -217 -64z" />
    <glyph glyph-name="Utilde" unicode="&#x168;" horiz-adv-x="1501" 
d="M752 -25q-153 0 -271.5 41.5t-193.5 117.5t-113.5 180t-38.5 231v821h295v-811q0 -146 83.5 -234t238.5 -88q154 0 236.5 87.5t82.5 234.5v811h297v-819q0 -264 -156.5 -418t-459.5 -154zM870 1477q-39 0 -70.5 14.5t-52 35t-38 40.5t-37.5 34.5t-41 14.5
q-33 0 -53.5 -32t-20.5 -95h-137q0 131 57 202.5t164 71.5q46 0 83 -21.5t57.5 -47t46.5 -47t51 -21.5q33 0 53 31.5t20 93.5h138q0 -131 -56.5 -202.5t-163.5 -71.5z" />
    <glyph glyph-name="utilde" unicode="&#x169;" 
d="M1057 0h-260v125q-58 -65 -146.5 -107.5t-201.5 -42.5q-159 0 -239.5 82t-80.5 230v702h260v-600q0 -98 47 -140t135 -42q70 0 129 32t97 80v670h260v-989zM709 1135q-39 0 -70.5 14.5t-52 35t-38.5 40.5t-38 34.5t-41 14.5q-33 0 -53.5 -32t-20.5 -95h-137
q0 131 57 202.5t164 71.5q46 0 83 -21.5t57.5 -47t46.5 -47t51 -21.5q33 0 53.5 31.5t20.5 93.5h137q0 -131 -56 -202.5t-163 -71.5z" />
    <glyph glyph-name="Umacron" unicode="&#x16a;" horiz-adv-x="1501" 
d="M752 -25q-153 0 -271.5 41.5t-193.5 117.5t-113.5 180t-38.5 231v821h295v-811q0 -146 83.5 -234t238.5 -88q154 0 236.5 87.5t82.5 234.5v811h297v-819q0 -264 -156.5 -418t-459.5 -154zM1126 1493h-743v147h743v-147z" />
    <glyph glyph-name="umacron" unicode="&#x16b;" 
d="M1057 0h-260v125q-58 -65 -146.5 -107.5t-201.5 -42.5q-159 0 -239.5 82t-80.5 230v702h260v-600q0 -98 47 -140t135 -42q70 0 129 32t97 80v670h260v-989zM963 1151h-744v147h744v-147z" />
    <glyph glyph-name="Ubreve" unicode="&#x16c;" horiz-adv-x="1501" 
d="M752 -25q-153 0 -271.5 41.5t-193.5 117.5t-113.5 180t-38.5 231v821h295v-811q0 -146 83.5 -234t238.5 -88q154 0 236.5 87.5t82.5 234.5v811h297v-819q0 -264 -156.5 -418t-459.5 -154zM1114 1610q-62 -84 -155.5 -132t-202.5 -48q-108 0 -202.5 48t-158.5 132l115 96
q90 -127 246 -127q153 0 243 127z" />
    <glyph glyph-name="ubreve" unicode="&#x16d;" 
d="M1057 0h-260v125q-58 -65 -146.5 -107.5t-201.5 -42.5q-159 0 -239.5 82t-80.5 230v702h260v-600q0 -98 47 -140t135 -42q70 0 129 32t97 80v670h260v-989zM954 1268q-63 -85 -156 -133t-202 -48q-107 0 -201.5 48.5t-158.5 132.5l114 96q90 -127 246 -127q154 0 244 127
z" />
    <glyph glyph-name="Uring" unicode="&#x16e;" horiz-adv-x="1501" 
d="M756 1430q-88 0 -151.5 63t-63.5 152q0 88 63.5 152.5t151.5 64.5q89 0 151 -64.5t62 -152.5q0 -89 -62 -152t-151 -63zM756 1548q39 0 66.5 29t27.5 68q0 40 -27 68t-67 28q-39 0 -68 -28.5t-29 -67.5q0 -38 29.5 -67.5t67.5 -29.5zM752 -25q-153 0 -271.5 41.5
t-193.5 117.5t-113.5 180t-38.5 231v821h295v-811q0 -146 83.5 -234t238.5 -88q154 0 236.5 87.5t82.5 234.5v811h297v-819q0 -264 -156.5 -418t-459.5 -154z" />
    <glyph glyph-name="uring" unicode="&#x16f;" 
d="M594 1087q-88 0 -151.5 63.5t-63.5 152.5q0 88 63.5 152.5t151.5 64.5q89 0 151 -64.5t62 -152.5q0 -90 -62 -153t-151 -63zM594 1206q39 0 66.5 29t27.5 68q0 40 -27 68t-67 28q-39 0 -67.5 -28.5t-28.5 -67.5q0 -38 29 -67.5t67 -29.5zM1057 0h-260v125
q-58 -65 -146.5 -107.5t-201.5 -42.5q-159 0 -239.5 82t-80.5 230v702h260v-600q0 -98 47 -140t135 -42q70 0 129 32t97 80v670h260v-989z" />
    <glyph glyph-name="Uhungarumlaut" unicode="&#x170;" horiz-adv-x="1501" 
d="M752 -25q-153 0 -271.5 41.5t-193.5 117.5t-113.5 180t-38.5 231v821h295v-811q0 -146 83.5 -234t238.5 -88q154 0 236.5 87.5t82.5 234.5v811h297v-819q0 -264 -156.5 -418t-459.5 -154zM891 1776l-236 -295h-151l178 295h209zM1196 1776l-235 -295h-152l178 295h209z
" />
    <glyph glyph-name="uhungarumlaut" unicode="&#x171;" 
d="M1057 0h-260v125q-58 -65 -146.5 -107.5t-201.5 -42.5q-159 0 -239.5 82t-80.5 230v702h260v-600q0 -98 47 -140t135 -42q70 0 129 32t97 80v670h260v-989zM727 1434l-235 -295h-152l178 295h209zM1032 1434l-235 -295h-152l178 295h209z" />
    <glyph glyph-name="Uogonek" unicode="&#x172;" horiz-adv-x="1501" 
d="M752 -25q-153 0 -271.5 41.5t-193.5 117.5t-113.5 180t-38.5 231v821h295v-811q0 -146 83.5 -234t238.5 -88q154 0 236.5 87.5t82.5 234.5v811h297v-819q0 -212 -101 -354.5t-300 -192.5q-144 -72 -144 -184q0 -44 22 -66t54 -22q64 0 88 71l105 -65q-64 -115 -193 -115
q-89 0 -147 45.5t-58 138.5q0 95 68 172h-10z" />
    <glyph glyph-name="uogonek" unicode="&#x173;" 
d="M1057 0q-144 -72 -144 -184q0 -44 22 -66t54 -22q64 0 88 71l105 -65q-64 -115 -193 -115q-89 0 -147 45.5t-58 138.5q0 113 93 197h-80v125q-58 -65 -146.5 -107.5t-201.5 -42.5q-159 0 -239.5 82t-80.5 230v702h260v-600q0 -98 47 -140t135 -42q70 0 129 32t97 80v670
h260v-989z" />
    <glyph glyph-name="Wcircumflex" unicode="&#x174;" horiz-adv-x="1880" 
d="M1247 1481h-160l-149 182l-145 -182h-160l188 295h234zM1489 0h-309l-240 938l-238 -938h-309l-391 1366h326l239 -987l260 987h228l258 -987l237 987h328z" />
    <glyph glyph-name="wcircumflex" unicode="&#x175;" horiz-adv-x="1574" 
d="M1096 1139h-160l-150 182l-145 -182h-160l189 295h233zM1274 0h-277l-209 674l-208 -674h-279l-301 989h270l185 -665l217 665h231l217 -665l185 665h270z" />
    <glyph glyph-name="Ycircumflex" unicode="&#x176;" horiz-adv-x="1320" 
d="M971 1481h-160l-149 182l-146 -182h-160l189 295h233zM807 0h-291v559l-526 807h332l340 -549l335 549h332l-522 -807v-559z" />
    <glyph glyph-name="ycircumflex" unicode="&#x177;" horiz-adv-x="1050" 
d="M94 -387l39 233q37 -16 82 -16q103 0 137 72l37 84l-401 1003h278l258 -688l258 688h281l-465 -1151q-52 -131 -144 -183.5t-231 -55.5q-71 0 -129 14zM831 1139h-159l-150 182l-145 -182h-160l189 295h233z" />
    <glyph glyph-name="Ydieresis" unicode="&#x178;" horiz-adv-x="1320" 
d="M1018 1593q0 -58 -41 -98.5t-98 -40.5t-98.5 40.5t-41.5 98.5q0 57 41.5 97.5t98.5 40.5t98 -40.5t41 -97.5zM584 1593q0 -58 -40.5 -98.5t-97.5 -40.5q-58 0 -98.5 40t-40.5 99q0 57 40.5 97.5t98.5 40.5q57 0 97.5 -40.5t40.5 -97.5zM807 0h-291v559l-526 807h332
l340 -549l335 549h332l-522 -807v-559z" />
    <glyph glyph-name="Zacute" unicode="&#x179;" horiz-adv-x="1212" 
d="M958 1776l-331 -295h-183l275 295h239zM1126 0h-1040v236l645 874h-645v256h1026v-233l-645 -877h659v-256z" />
    <glyph glyph-name="zacute" unicode="&#x17a;" horiz-adv-x="980" 
d="M872 1434l-331 -295h-183l275 295h239zM893 0h-807v195l446 567h-446v227h799v-188l-453 -574h461v-227z" />
    <glyph glyph-name="Zdotaccent" unicode="&#x17b;" horiz-adv-x="1212" 
d="M1126 0h-1040v236l645 874h-645v256h1026v-233l-645 -877h659v-256zM596 1454q-58 0 -98.5 40t-40.5 99q0 57 40.5 98.5t98.5 41.5q56 0 96.5 -41.5t40.5 -98.5q0 -58 -40.5 -98.5t-96.5 -40.5z" />
    <glyph glyph-name="zdotaccent" unicode="&#x17c;" horiz-adv-x="980" 
d="M893 0h-807v195l446 567h-446v227h799v-188l-453 -574h461v-227zM487 1112q-59 0 -99 40t-40 99q0 57 40.5 98.5t98.5 41.5q56 0 97 -41.5t41 -98.5q0 -58 -41 -98.5t-97 -40.5z" />
    <glyph glyph-name="Zcaron" unicode="&#x17d;" horiz-adv-x="1212" 
d="M721 1481h-234l-194 295h160l151 -185l144 185h159zM1126 0h-1040v236l645 874h-645v256h1026v-233l-645 -877h659v-256z" />
    <glyph glyph-name="zcaron" unicode="&#x17e;" horiz-adv-x="980" 
d="M602 1139h-233l-195 295h160l151 -185l144 185h159zM893 0h-807v195l446 567h-446v227h799v-188l-453 -574h461v-227z" />
    <glyph glyph-name="longs" unicode="&#x17f;" horiz-adv-x="669" 
d="M449 0h-263v762h-163v227h163v53q0 157 92 250.5t242 93.5q173 0 258 -92l-98 -164q-41 41 -109 41q-55 0 -88.5 -35t-33.5 -94v-1042z" />
    <glyph glyph-name="florin" unicode="&#x192;" horiz-adv-x="929" 
d="M313 -330h-297l181 817h-111v230h160l76 340q32 148 144 238.5t261 90.5q158 0 242 -88l-111 -211q-40 43 -96 43q-57 0 -99 -36t-57 -101l-61 -276h231v-230h-282z" />
    <glyph glyph-name="Ohorn" unicode="&#x1a0;" horiz-adv-x="1566" 
d="M782 -25q-152 0 -284.5 53t-226.5 145.5t-147.5 224.5t-53.5 284t53.5 284t147.5 224.5t226.5 145.5t284.5 53q161 0 298 -58t235 -164q32 27 57.5 63.5t32.5 67.5q-8 -4 -29 -4q-42 0 -70 30t-28 75q0 47 33.5 80.5t79.5 33.5q54 0 91.5 -40t37.5 -109
q0 -80 -38.5 -150.5t-105.5 -121.5q121 -175 121 -410q0 -203 -92 -365t-255 -252t-368 -90zM782 233q186 0 301 127.5t115 321.5q0 195 -115 321.5t-301 126.5t-299.5 -126.5t-113.5 -321.5q0 -194 113.5 -321.5t299.5 -127.5z" />
    <glyph glyph-name="ohorn" unicode="&#x1a1;" horiz-adv-x="1175" 
d="M1130 1090q0 -75 -35 -144t-96 -119q113 -137 113 -331q0 -106 -36.5 -200.5t-102 -166t-165.5 -113t-220 -41.5q-158 0 -278.5 71.5t-182 189t-61.5 260.5q0 142 61.5 258.5t182 188t278.5 71.5q201 0 342 -115q71 60 86 127q-8 -4 -29 -4q-42 0 -70 29t-28 75
t32.5 80.5t79.5 34.5q54 0 91.5 -41t37.5 -110zM588 207q117 0 185.5 83.5t68.5 205.5q0 121 -68.5 203.5t-185.5 82.5t-184.5 -82.5t-67.5 -203.5q0 -122 67.5 -205.5t184.5 -83.5z" />
    <glyph glyph-name="Uhorn" unicode="&#x1af;" horiz-adv-x="1501" 
d="M1591 1487q0 -95 -58 -182t-165 -136v-622q0 -264 -156.5 -418t-459.5 -154q-153 0 -271.5 41.5t-193.5 117.5t-113.5 180t-38.5 231v821h295v-811q0 -146 83.5 -234t238.5 -88q154 0 236.5 87.5t82.5 234.5v811h297v-88q40 28 71 68t38 79q-6 -6 -29 -6q-42 0 -70 30
t-28 77q0 46 33 79t79 33q54 0 91.5 -41t37.5 -110z" />
    <glyph glyph-name="uhorn" unicode="&#x1b0;" 
d="M1057 0h-260v125q-58 -65 -146.5 -107.5t-201.5 -42.5q-159 0 -239.5 82t-80.5 230v702h260v-600q0 -98 47 -140t135 -42q70 0 129 32t97 80v670h260v-35q44 51 53 99q-8 -4 -29 -4q-43 0 -70.5 28.5t-27.5 75.5q0 46 33 80.5t80 34.5q55 0 92 -41t37 -111
q0 -80 -43.5 -157.5t-124.5 -131.5v-827z" />
    <glyph glyph-name="AEacute" unicode="&#x1fc;" horiz-adv-x="1982" 
d="M1464 1776l-331 -295h-183l275 295h239zM1896 0h-966v231h-481l-136 -231h-331l831 1366h1083v-256h-673v-289h659v-256h-659v-309h673v-256zM930 487v588l-342 -588h342z" />
    <glyph glyph-name="aeacute" unicode="&#x1fd;" horiz-adv-x="1781" 
d="M1245 1434l-332 -295h-182l275 295h239zM1722 412h-698q14 -97 83.5 -160.5t182.5 -63.5q66 0 133.5 26t110.5 71l117 -172q-71 -65 -176 -101.5t-203 -36.5q-255 0 -381 181q-64 -81 -174 -131t-238 -50q-112 0 -203.5 34t-150.5 109t-59 181q0 105 50 179.5
t129.5 109.5t178.5 35q103 0 192.5 -31t145.5 -88v133q0 73 -65 118.5t-171 45.5q-171 0 -309 -117l-98 174q88 77 202 116.5t236 39.5q260 0 346 -170q61 80 145.5 125t213.5 45q205 0 332.5 -151t127.5 -394v-57zM1020 588h450q-2 38 -15 74.5t-38.5 70t-70 54
t-101.5 20.5q-101 0 -158.5 -67t-66.5 -152zM762 346v12q-36 41 -99 64.5t-133 23.5q-89 0 -145.5 -34.5t-56.5 -98.5t55.5 -98.5t140.5 -34.5q95 0 166.5 52.5t71.5 113.5z" />
    <glyph glyph-name="Oslashacute" unicode="&#x1fe;" horiz-adv-x="1566" 
d="M1167 1776l-331 -295h-183l275 295h239zM782 -25q-207 0 -376 97l-56 -72h-209l131 172q-97 95 -149.5 226t-52.5 284q0 152 53.5 284t147.5 224.5t226.5 145.5t284.5 53q193 0 355 -84l47 61h209l-119 -156q106 -97 164.5 -232.5t58.5 -295.5q0 -203 -92 -365t-255 -252
t-368 -90zM782 233q186 0 301 127.5t115 321.5q0 180 -98 301l-531 -694q94 -56 213 -56zM369 682q0 -162 80 -281l522 686q-88 43 -189 43q-186 0 -299.5 -126.5t-113.5 -321.5z" />
    <glyph glyph-name="oslashacute" unicode="&#x1ff;" horiz-adv-x="1175" 
d="M973 1434l-332 -295h-182l274 295h240zM242 0h-160l117 137q-133 145 -133 359q0 142 61.5 258.5t182 188t278.5 71.5q165 0 289 -78l45 53h163l-112 -131q139 -145 139 -362q0 -106 -36.5 -200.5t-102 -166t-165.5 -113t-220 -41.5q-173 0 -297 82zM588 207
q117 0 185.5 83.5t68.5 205.5q0 90 -41 161l-350 -411q53 -39 137 -39zM336 496q0 -88 35 -156l346 408q-55 34 -129 34q-117 0 -184.5 -82.5t-67.5 -203.5z" />
    <glyph glyph-name="Scommaaccent" unicode="&#x218;" horiz-adv-x="1228" 
d="M754 -283q0 -91 -46 -171t-124 -136l-90 72q43 24 81.5 71.5t47.5 90.5q-8 -4 -31 -4q-46 0 -77.5 32t-31.5 82q0 54 36.5 91.5t88.5 37.5q60 0 103 -45t43 -121zM621 -25q-363 0 -578 218l158 221q79 -82 190 -133.5t244 -51.5q114 0 175.5 44.5t61.5 107.5
q0 38 -27 66.5t-72.5 46.5t-104.5 33t-124 30.5t-130 35t-124 51t-104.5 73.5t-72.5 107t-27 147q0 176 141.5 295.5t376.5 119.5q328 0 533 -190l-162 -213q-81 74 -185 112t-212 38q-92 0 -143.5 -37.5t-51.5 -100.5q0 -38 33.5 -66.5t89 -44t126 -34t143.5 -36t143.5 -50
t126 -75t89 -113.5t33.5 -162q0 -196 -139.5 -317.5t-406.5 -121.5z" />
    <glyph glyph-name="scommaaccent" unicode="&#x219;" horiz-adv-x="976" 
d="M643 -283q0 -91 -46 -171t-124 -136l-90 72q43 24 81.5 71.5t47.5 90.5q-8 -4 -31 -4q-46 0 -77 32t-31 82q0 54 36.5 91.5t88.5 37.5q60 0 102.5 -45t42.5 -121zM485 -25q-129 0 -246.5 41t-195.5 113l113 182q57 -54 155.5 -94.5t186.5 -40.5q82 0 124 29.5t42 77.5
q0 33 -32.5 54t-84.5 33t-114.5 23.5t-125 32t-114.5 51.5t-84.5 88.5t-32.5 136.5q0 131 109 221.5t296 90.5q230 0 400 -135l-105 -179q-46 49 -126 82t-167 33q-69 0 -112 -28t-43 -70q0 -29 32.5 -48t84 -31t113.5 -23.5t124.5 -33.5t114 -54.5t84 -92.5t32.5 -141
q0 -139 -114 -228.5t-314 -89.5z" />
    <glyph glyph-name="uni021A" unicode="&#x21a;" horiz-adv-x="1191" 
d="M741 -283q0 -91 -46 -171t-124 -136l-90 72q43 24 81.5 71.5t47.5 90.5q-8 -4 -30 -4q-46 0 -77.5 32t-31.5 82q0 54 36.5 91.5t88.5 37.5q60 0 102.5 -45t42.5 -121zM743 0h-292v1110h-400v256h1090v-256h-398v-1110z" />
    <glyph glyph-name="uni021B" unicode="&#x21b;" horiz-adv-x="692" 
d="M492 -283q0 -91 -46 -171t-124 -136l-91 72q43 24 81.5 71.5t47.5 90.5q-8 -4 -30 -4q-46 0 -77.5 32t-31.5 82q0 54 36.5 91.5t88.5 37.5q60 0 103 -45t43 -121zM461 -25q-137 0 -209 69.5t-72 201.5v516h-164v227h164v271h262v-271h201v-227h-201v-447q0 -47 24 -77.5
t66 -30.5q28 0 54 9t37 20l55 -197q-71 -64 -217 -64z" />
    <glyph glyph-name="uni0237" unicode="&#x237;" horiz-adv-x="518" 
d="M37 -401q-90 0 -140.5 15t-107.5 54l72 201q62 -49 133 -49q62 0 98.5 39.5t36.5 113.5v1016h260v-1016q0 -174 -89 -274t-263 -100z" />
    <glyph glyph-name="hsuperior" unicode="&#x2b0;" horiz-adv-x="841" 
d="M739 668h-190v385q0 63 -29.5 88.5t-87.5 25.5q-44 0 -81 -19.5t-60 -47.5v-432h-189v888h189v-327q36 41 94.5 69.5t134.5 28.5q110 0 164.5 -55.5t54.5 -155.5v-448z" />
    <glyph glyph-name="uni02BC" unicode="&#x2bc;" horiz-adv-x="522" 
d="M440 1178q0 -112 -57 -211.5t-154 -169.5l-112 92q51 27 98 83.5t59 110.5q-12 -8 -38 -8q-59 0 -99.5 42t-40.5 106q0 67 47.5 115t112.5 48q76 0 130 -56t54 -152z" />
    <glyph glyph-name="circumflex" unicode="&#x2c6;" horiz-adv-x="614" 
d="M614 1139h-159l-150 182l-145 -182h-160l188 295h234z" />
    <glyph glyph-name="caron" unicode="&#x2c7;" horiz-adv-x="614" 
d="M428 1139h-233l-195 295h160l151 -185l144 185h159z" />
    <glyph glyph-name="uni02C9" unicode="&#x2c9;" horiz-adv-x="743" 
d="M743 1210h-743v150h743v-150z" />
    <glyph glyph-name="uni02CB" unicode="&#x2cb;" horiz-adv-x="514" 
d="M514 1139h-182l-332 295h238z" />
    <glyph glyph-name="breve" unicode="&#x2d8;" horiz-adv-x="718" 
d="M719 1268q-62 -85 -156 -133t-203 -48q-107 0 -201.5 48.5t-158.5 132.5l115 96q90 -127 245 -127q154 0 244 127z" />
    <glyph glyph-name="dotaccent" unicode="&#x2d9;" horiz-adv-x="356" 
d="M180 1112q-58 0 -98.5 40t-40.5 99q0 57 40.5 98.5t98.5 41.5q56 0 96.5 -41.5t40.5 -98.5q0 -58 -40.5 -98.5t-96.5 -40.5z" />
    <glyph glyph-name="ring" unicode="&#x2da;" horiz-adv-x="428" 
d="M215 1087q-88 0 -151.5 63.5t-63.5 152.5q0 88 63.5 152.5t151.5 64.5q89 0 151 -64.5t62 -152.5q0 -90 -62 -153t-151 -63zM215 1206q39 0 66.5 29t27.5 68q0 40 -27 68t-67 28q-39 0 -67.5 -28.5t-28.5 -67.5q0 -38 29 -67.5t67 -29.5z" />
    <glyph glyph-name="ogonek" unicode="&#x2db;" horiz-adv-x="397" 
d="M293 -201l104 -65q-64 -115 -192 -115q-89 0 -147 45.5t-58 138.5q0 79 47 145.5t133 112.5l92 -61q-143 -72 -143 -184q0 -44 22 -66t54 -22q64 0 88 71z" />
    <glyph glyph-name="tilde" unicode="&#x2dc;" horiz-adv-x="669" 
d="M451 1135q-39 0 -70.5 14.5t-52 35t-38.5 40.5t-38 34.5t-41 14.5q-33 0 -53.5 -32t-20.5 -95h-137q0 131 57 202.5t164 71.5q46 0 83 -21.5t57.5 -47t46.5 -47t51 -21.5q33 0 53 31.5t20 93.5h138q0 -131 -56 -202.5t-163 -71.5z" />
    <glyph glyph-name="hungarumlaut" unicode="&#x2dd;" horiz-adv-x="692" 
d="M387 1434l-235 -295h-152l178 295h209zM692 1434l-235 -295h-152l178 295h209z" />
    <glyph glyph-name="hookabovecomb" unicode="&#x309;" horiz-adv-x="397" 
d="M123 1473l-92 28q19 56 62 86.5t102 30.5q70 0 115.5 -37t45.5 -111q0 -54 -30 -104h-113q41 44 41 98q0 33 -17 49.5t-42 16.5q-52 0 -72 -57z" />
    <glyph glyph-name="uni037E" unicode="&#x37e;" horiz-adv-x="524" 
d="M262 672q-67 0 -116.5 50t-49.5 116q0 68 49 117t117 49t117 -49t49 -117q0 -66 -49.5 -116t-116.5 -50zM440 104q0 -112 -57 -211t-154 -169l-112 92q52 29 98.5 85.5t58.5 108.5q-24 -8 -38 -8q-59 0 -99.5 42.5t-40.5 107.5q0 67 47.5 114t112.5 47q76 0 130 -56.5
t54 -152.5z" />
    <glyph glyph-name="tonos" unicode="&#x384;" horiz-adv-x="460" 
d="M338 1133h-115l43 434h215z" />
    <glyph glyph-name="dieresistonos" unicode="&#x385;" 
d="M614 1133h-116l43 434h217zM1038 1251q0 -59 -40 -99t-99 -40q-57 0 -98 40.5t-41 98.5q0 57 41 97.5t98 40.5q58 0 98.5 -40.5t40.5 -97.5zM422 1251q0 -59 -39.5 -99t-97.5 -40q-59 0 -99.5 40.5t-40.5 98.5q0 57 41 97.5t99 40.5t97.5 -40.5t39.5 -97.5z" />
    <glyph glyph-name="Alphatonos" unicode="&#x386;" horiz-adv-x="1400" 
d="M338 1133h-115l43 434h215zM1409 0h-332l-84 231h-585l-86 -231h-332l528 1366h365zM913 487l-213 588l-213 -588h426z" />
    <glyph glyph-name="Epsilontonos" unicode="&#x388;" horiz-adv-x="1267" 
d="M78 1133h-115l43 434h215zM1176 0h-967v1366h967v-256h-676v-289h661v-256h-661v-309h676v-256z" />
    <glyph glyph-name="Etatonos" unicode="&#x389;" horiz-adv-x="1572" 
d="M78 1133h-115l43 434h215zM1438 0h-293v573h-645v-573h-291v1366h291v-537h645v537h293v-1366z" />
    <glyph glyph-name="Iotatonos" unicode="&#x38a;" horiz-adv-x="636" 
d="M78 1133h-115l43 434h215zM500 0h-291v1366h291v-1366z" />
    <glyph glyph-name="Omicrontonos" unicode="&#x38c;" horiz-adv-x="1566" 
d="M113 1133h-115l43 434h215zM782 -25q-152 0 -284.5 53t-226.5 145.5t-147.5 224.5t-53.5 284t53.5 284t147.5 224.5t226.5 145.5t284.5 53q205 0 368 -90t255 -252t92 -365t-92 -365t-255 -252t-368 -90zM782 233q186 0 301 127.5t115 321.5q0 195 -115 321.5t-301 126.5
t-299.5 -126.5t-113.5 -321.5q0 -194 113.5 -321.5t299.5 -127.5z" />
    <glyph glyph-name="Upsilontonos" unicode="&#x38e;" horiz-adv-x="1495" 
d="M78 1133h-115l43 434h215zM979 0h-291v559l-526 807h332l340 -549l335 549h332l-522 -807v-559z" />
    <glyph glyph-name="Omegatonos" unicode="&#x38f;" horiz-adv-x="1585" 
d="M113 1133h-115l43 434h215zM125 256h244q-123 83 -202 207.5t-79 286.5q0 191 92.5 337t254.5 224t366 78q206 0 368 -78t254.5 -224t92.5 -337q0 -162 -78.5 -286.5t-200.5 -207.5h244v-256h-553v256q129 35 209 152.5t80 275.5q0 84 -25 161.5t-73.5 141.5
t-130.5 102.5t-187 38.5q-104 0 -186 -38.5t-130 -102.5t-73 -141.5t-25 -161.5q0 -157 80.5 -274.5t208.5 -153.5v-256h-551v256z" />
    <glyph glyph-name="iotadieresistonos" unicode="&#x390;" horiz-adv-x="546" 
d="M295 1133h-117l43 434h217zM719 1251q0 -59 -40.5 -99t-98.5 -40q-57 0 -98.5 40.5t-41.5 98.5q0 57 41.5 97.5t98.5 40.5q58 0 98.5 -40.5t40.5 -97.5zM102 1251q0 -59 -39.5 -99t-97.5 -40q-59 0 -99 40t-40 99q0 57 40.5 97.5t98.5 40.5t97.5 -40.5t39.5 -97.5z
M408 -25q-136 0 -207.5 69.5t-71.5 201.5v743h260v-692q0 -42 22.5 -66t59.5 -24q19 0 39 4l18 -221q-58 -15 -120 -15z" />
    <glyph glyph-name="Alpha" unicode="&#x391;" horiz-adv-x="1400" 
d="M1409 0h-332l-84 231h-585l-86 -231h-332l528 1366h365zM913 487l-213 588l-213 -588h426z" />
    <glyph glyph-name="Beta" unicode="&#x392;" horiz-adv-x="1357" 
d="M877 0h-742v1366h719q94 0 170.5 -28.5t124 -77.5t73 -111t25.5 -131q0 -124 -67 -208t-168 -105q110 -17 186 -113t76 -223q0 -161 -104.5 -265t-292.5 -104zM791 819q73 0 116 41.5t43 106.5q0 66 -43.5 107.5t-115.5 41.5h-365v-297h365zM801 252q83 0 129.5 42
t46.5 116q0 68 -46.5 113.5t-129.5 45.5h-375v-317h375z" />
    <glyph glyph-name="Gamma" unicode="&#x393;" horiz-adv-x="1169" 
d="M426 0h-291v1366h967v-256h-676v-1110z" />
    <glyph glyph-name="uni0394" unicode="&#x394;" horiz-adv-x="1400" 
d="M1409 0h-1419l528 1366h365zM999 256l-299 819l-299 -819h598z" />
    <glyph glyph-name="Epsilon" unicode="&#x395;" horiz-adv-x="1193" 
d="M1102 0h-967v1366h967v-256h-676v-289h661v-256h-661v-309h676v-256z" />
    <glyph glyph-name="Zeta" unicode="&#x396;" horiz-adv-x="1212" 
d="M1126 0h-1040v236l645 874h-645v256h1026v-233l-645 -877h659v-256z" />
    <glyph glyph-name="Eta" unicode="&#x397;" horiz-adv-x="1497" 
d="M1364 0h-293v573h-645v-573h-291v1366h291v-537h645v537h293v-1366z" />
    <glyph glyph-name="Theta" unicode="&#x398;" horiz-adv-x="1566" 
d="M1098 565h-629v256h629v-256zM782 -25q-152 0 -284.5 53t-226.5 145.5t-147.5 224.5t-53.5 284t53.5 284t147.5 224.5t226.5 145.5t284.5 53q205 0 368 -90t255 -252t92 -365t-92 -365t-255 -252t-368 -90zM782 233q186 0 301 127.5t115 321.5q0 195 -115 321.5
t-301 126.5t-299.5 -126.5t-113.5 -321.5q0 -194 113.5 -321.5t299.5 -127.5z" />
    <glyph glyph-name="Iota" unicode="&#x399;" horiz-adv-x="561" 
d="M426 0h-291v1366h291v-1366z" />
    <glyph glyph-name="Kappa" unicode="&#x39a;" horiz-adv-x="1302" 
d="M1305 0h-359l-414 547l-106 -127v-420h-291v1366h291v-610l483 610h359l-543 -641z" />
    <glyph glyph-name="Lambda" unicode="&#x39b;" horiz-adv-x="1400" 
d="M1409 0h-332l-377 1075l-378 -1075h-332l528 1366h365z" />
    <glyph glyph-name="Mu" unicode="&#x39c;" horiz-adv-x="1751" 
d="M1616 0h-293v956l-385 -956h-127l-385 956v-956h-291v1366h408l331 -825l332 825h410v-1366z" />
    <glyph glyph-name="Nu" unicode="&#x39d;" horiz-adv-x="1492" 
d="M1358 0h-281l-651 891v-891h-291v1366h299l633 -858v858h291v-1366z" />
    <glyph glyph-name="Xi" unicode="&#x39e;" horiz-adv-x="1277" 
d="M1184 1110h-1092v256h1092v-256zM1184 0h-1092v256h1092v-256zM1171 565h-1065v256h1065v-256z" />
    <glyph glyph-name="Omicron" unicode="&#x39f;" horiz-adv-x="1566" 
d="M782 -25q-152 0 -284.5 53t-226.5 145.5t-147.5 224.5t-53.5 284t53.5 284t147.5 224.5t226.5 145.5t284.5 53q205 0 368 -90t255 -252t92 -365t-92 -365t-255 -252t-368 -90zM782 233q186 0 301 127.5t115 321.5q0 195 -115 321.5t-301 126.5t-299.5 -126.5
t-113.5 -321.5q0 -194 113.5 -321.5t299.5 -127.5z" />
    <glyph glyph-name="Pi" unicode="&#x3a0;" horiz-adv-x="1497" 
d="M1364 0h-293v1110h-645v-1110h-291v1366h1229v-1366z" />
    <glyph glyph-name="Rho" unicode="&#x3a1;" horiz-adv-x="1277" 
d="M426 0h-291v1366h639q108 0 196.5 -35t145 -95t87 -139.5t30.5 -170.5q0 -90 -30.5 -169.5t-87.5 -140t-145 -96t-196 -35.5h-348v-485zM735 741q88 0 144.5 51t56.5 134q0 85 -56.5 134.5t-144.5 49.5h-309v-369h309z" />
    <glyph glyph-name="Sigma" unicode="&#x3a3;" horiz-adv-x="1200" 
d="M459 1110l407 -412l-422 -442h662v-256h-1014v256l416 440l-414 414v256h1012v-256h-647z" />
    <glyph glyph-name="Tau" unicode="&#x3a4;" horiz-adv-x="1191" 
d="M743 0h-292v1110h-400v256h1090v-256h-398v-1110z" />
    <glyph glyph-name="Upsilon" unicode="&#x3a5;" horiz-adv-x="1320" 
d="M807 0h-291v559l-526 807h332l340 -549l335 549h332l-522 -807v-559z" />
    <glyph glyph-name="Phi" unicode="&#x3a6;" horiz-adv-x="1751" 
d="M1020 0h-291v137q-312 26 -485.5 168t-173.5 377q0 233 173.5 375t485.5 170v139h291v-139q313 -28 486 -169.5t173 -375.5q0 -235 -173.5 -377t-485.5 -168v-137zM1382 682q0 117 -92.5 190t-269.5 95v-570q176 20 269 93.5t93 191.5zM369 682q0 -117 92 -190t268 -95
v570q-176 -22 -268 -95.5t-92 -189.5z" />
    <glyph glyph-name="Chi" unicode="&#x3a7;" horiz-adv-x="1368" 
d="M1374 0h-348l-342 500l-344 -500h-346l495 700l-464 666h346l313 -467l309 467h350l-464 -664z" />
    <glyph glyph-name="Psi" unicode="&#x3a8;" horiz-adv-x="1773" 
d="M1034 0h-293v260q-300 30 -453 179.5t-153 383.5v543h295v-532q0 -127 79 -207t232 -105v844h293v-844q151 26 229 106.5t78 205.5v532h297v-541q0 -235 -153 -385t-451 -180v-260z" />
    <glyph glyph-name="uni03A9" unicode="&#x3a9;" horiz-adv-x="1566" 
d="M106 256h244q-123 83 -201.5 207.5t-78.5 286.5q0 191 92.5 337t254 224t365.5 78q206 0 368 -78t254.5 -224t92.5 -337q0 -162 -78 -286.5t-200 -207.5h243v-256h-553v256q129 35 209 152.5t80 275.5q0 84 -25 161.5t-73.5 141.5t-130.5 102.5t-187 38.5
q-104 0 -185.5 -38.5t-130 -102.5t-73 -141.5t-24.5 -161.5q0 -157 80 -275t208 -153v-256h-551v256z" />
    <glyph glyph-name="Iotadieresis" unicode="&#x3aa;" horiz-adv-x="561" 
d="M426 0h-291v1366h291v-1366zM637 1628q0 -58 -41 -98.5t-98 -40.5t-98.5 40.5t-41.5 98.5q0 57 41.5 97t98.5 40t98 -40t41 -97zM203 1628q0 -58 -40 -98.5t-97 -40.5q-59 0 -99.5 40.5t-40.5 98.5q0 57 41 97t99 40q57 0 97 -40t40 -97z" />
    <glyph glyph-name="Upsilondieresis" unicode="&#x3ab;" horiz-adv-x="1320" 
d="M807 0h-291v559l-526 807h332l340 -549l335 549h332l-522 -807v-559zM1014 1628q0 -58 -41.5 -98.5t-98.5 -40.5t-98 40.5t-41 98.5q0 57 41 97t98 40t98.5 -40t41.5 -97zM580 1628q0 -58 -40.5 -98.5t-97.5 -40.5q-58 0 -98.5 40.5t-40.5 98.5q0 57 40.5 97t98.5 40
q57 0 97.5 -40t40.5 -97z" />
    <glyph glyph-name="alphatonos" unicode="&#x3ac;" horiz-adv-x="1228" 
d="M649 1133h-114l43 434h215zM1192 211l16 -221q-58 -15 -118 -15q-214 0 -265 177q-50 -81 -135.5 -129t-185.5 -48q-193 0 -315.5 138.5t-122.5 380.5q0 239 122.5 379.5t315.5 140.5q184 0 303 -152v127h264v-692q0 -42 22.5 -66t59.5 -24q19 0 39 4zM584 207
q66 0 129.5 31.5t95.5 80.5v349q-32 49 -95.5 80.5t-129.5 31.5q-111 0 -180.5 -79t-69.5 -207q0 -127 70 -207t180 -80z" />
    <glyph glyph-name="epsilontonos" unicode="&#x3ad;" horiz-adv-x="1032" 
d="M551 1133h-115l43 434h215zM543 -25q-220 0 -349.5 82.5t-127.5 214.5q0 54 26 99t68 73t89.5 44.5t94.5 19.5q-106 16 -183 79.5t-77 153.5q2 127 128.5 199.5t354.5 71.5q130 0 238 -44.5t182 -119.5l-125 -154q-116 113 -307 113q-88 0 -143.5 -28t-55.5 -72
q0 -107 203 -107h203v-201h-203q-221 0 -221 -110q0 -48 53.5 -77.5t151.5 -29.5q94 0 184.5 28.5t155.5 84.5l121 -162q-77 -73 -194.5 -115.5t-266.5 -42.5z" />
    <glyph glyph-name="etatonos" unicode="&#x3ae;" 
d="M629 1133h-115l43 434h215zM1057 -377h-260v975q0 98 -47.5 141t-135.5 43q-71 0 -130 -33.5t-95 -82.5v-666h-260v989h260v-129q54 65 144 109.5t202 44.5q159 0 240.5 -83.5t81.5 -232.5v-1075z" />
    <glyph glyph-name="iotatonos" unicode="&#x3af;" horiz-adv-x="546" 
d="M309 1133h-114l43 434h215zM408 -25q-136 0 -207.5 69.5t-71.5 201.5v743h260v-692q0 -42 22.5 -66t59.5 -24q19 0 39 4l18 -221q-58 -15 -120 -15z" />
    <glyph glyph-name="upsilondieresistonos" unicode="&#x3b0;" horiz-adv-x="1181" 
d="M612 1133h-116l43 434h217zM1036 1251q0 -59 -40 -99t-99 -40q-57 0 -98 40.5t-41 98.5q0 57 41 97.5t98 40.5q58 0 98.5 -40.5t40.5 -97.5zM420 1251q0 -59 -39.5 -99t-97.5 -40q-59 0 -99.5 40.5t-40.5 98.5q0 57 41 97.5t99 40.5t97.5 -40.5t39.5 -97.5zM592 -25
q-227 0 -345 127.5t-118 343.5v543h260v-538q0 -111 54 -177.5t149 -66.5q120 0 187 88.5t67 234.5q0 104 -30.5 203.5t-90.5 175.5l240 105q74 -104 112.5 -231t38.5 -253q0 -244 -141.5 -399.5t-382.5 -155.5z" />
    <glyph glyph-name="alpha" unicode="&#x3b1;" horiz-adv-x="1228" 
d="M1192 211l16 -221q-58 -15 -118 -15q-214 0 -265 177q-50 -81 -135.5 -129t-185.5 -48q-193 0 -315.5 138.5t-122.5 380.5q0 239 122.5 379.5t315.5 140.5q184 0 303 -152v127h264v-692q0 -42 22.5 -66t59.5 -24q19 0 39 4zM584 207q66 0 129.5 31.5t95.5 80.5v349
q-32 49 -95.5 80.5t-129.5 31.5q-111 0 -180.5 -79t-69.5 -207q0 -127 70 -207t180 -80z" />
    <glyph glyph-name="beta" unicode="&#x3b2;" horiz-adv-x="1200" 
d="M389 918v-601q40 -49 104.5 -79.5t141.5 -30.5q109 0 169 51t60 137t-64 134.5t-171 48.5h-82v231h74q98 0 154 45t56 127q0 80 -54.5 126t-141.5 46q-109 0 -177.5 -62.5t-68.5 -172.5zM389 127v-504h-260v1295q0 98 30 178t80 133t116.5 89t136.5 52t143 16
q220 0 343.5 -99.5t123.5 -270.5q0 -123 -83.5 -206t-203.5 -105q54 -6 108 -30t102 -65.5t78 -110.5t30 -153q0 -156 -121 -263.5t-289 -107.5q-213 0 -334 152z" />
    <glyph glyph-name="gamma" unicode="&#x3b3;" horiz-adv-x="1050" 
d="M655 -377h-262v219q0 324 -119.5 634.5t-306.5 512.5h295q107 -124 193.5 -325t105.5 -363q77 119 133 316.5t56 371.5h262q0 -240 -101 -511.5t-256 -467.5v-387z" />
    <glyph glyph-name="delta" unicode="&#x3b4;" horiz-adv-x="1175" 
d="M602 -25q-124 0 -226.5 41t-169.5 110.5t-103.5 159.5t-36.5 189q0 135 64.5 236t168.5 157q-117 75 -117 211q0 131 108.5 221.5t297.5 90.5q228 0 395 -136l-102 -184q-49 49 -127.5 81t-165.5 32q-70 0 -113 -26t-43 -68q0 -24 23.5 -42.5t62.5 -32.5t90 -28
t107.5 -33t113 -44t107.5 -64.5t90 -89.5t62.5 -125t23.5 -166q0 -95 -34.5 -183t-97.5 -156.5t-161.5 -109.5t-216.5 -41zM858 465q0 40 -9.5 75t-24 61t-39.5 49t-49 39t-59.5 32t-63.5 26t-68 23q-101 -40 -155 -119t-54 -176q0 -108 70 -188t190 -80q119 0 190.5 78.5
t71.5 179.5z" />
    <glyph glyph-name="epsilon" unicode="&#x3b5;" horiz-adv-x="1032" 
d="M543 -25q-220 0 -349.5 82.5t-127.5 214.5q0 54 26 99t68 73t89.5 44.5t94.5 19.5q-106 16 -183 79.5t-77 153.5q2 127 128.5 199.5t354.5 71.5q130 0 238 -44.5t182 -119.5l-125 -154q-116 113 -307 113q-88 0 -143.5 -28t-55.5 -72q0 -107 203 -107h203v-201h-203
q-221 0 -221 -110q0 -48 53.5 -77.5t151.5 -29.5q94 0 184.5 28.5t155.5 84.5l121 -162q-77 -73 -194.5 -115.5t-266.5 -42.5z" />
    <glyph glyph-name="zeta" unicode="&#x3b6;" horiz-adv-x="995" 
d="M668 -70q0 24 -16 34.5t-52 10.5q-244 0 -389 123t-145 334q0 212 136.5 395.5t375.5 311.5h-480v227h817v-188q-119 -66 -221.5 -145.5t-184.5 -172t-128.5 -198t-46.5 -209.5q0 -124 79 -185t220 -61q162 0 232.5 -52.5t70.5 -162.5q0 -122 -109 -314h-276
q40 54 78.5 131.5t38.5 120.5z" />
    <glyph glyph-name="eta" unicode="&#x3b7;" 
d="M1057 -377h-260v975q0 98 -47.5 141t-135.5 43q-71 0 -130 -33.5t-95 -82.5v-666h-260v989h260v-129q54 65 144 109.5t202 44.5q159 0 240.5 -83.5t81.5 -232.5v-1075z" />
    <glyph glyph-name="theta" unicode="&#x3b8;" horiz-adv-x="1175" 
d="M588 -25q-100 0 -184.5 37t-146 102.5t-105 154.5t-65 194t-21.5 221t21.5 221.5t65 194t105 153.5t146 101.5t184.5 36.5q125 0 225.5 -56t165 -153.5t99 -224.5t34.5 -273q0 -145 -34.5 -272.5t-99 -225.5t-165 -154.5t-225.5 -56.5zM588 207q222 0 250 364h-498
q25 -364 248 -364zM588 1159q-223 0 -248 -358h498q-29 358 -250 358z" />
    <glyph glyph-name="iota" unicode="&#x3b9;" horiz-adv-x="546" 
d="M408 -25q-136 0 -207.5 69.5t-71.5 201.5v743h260v-692q0 -42 22.5 -66t59.5 -24q19 0 39 4l18 -221q-58 -15 -120 -15z" />
    <glyph glyph-name="kappa" unicode="&#x3ba;" horiz-adv-x="1095" 
d="M1096 0h-326l-262 381l-119 -127v-254h-260v989h260v-440l375 440h319l-391 -448z" />
    <glyph glyph-name="lambda" unicode="&#x3bb;" horiz-adv-x="1050" 
d="M133 1141l-39 233q56 17 129 17q139 -3 231 -56t144 -184l465 -1151h-281l-258 688l-258 -688h-278l401 1001l-37 84q-18 40 -51 57t-86 17q-47 0 -82 -18z" />
    <glyph glyph-name="uni03BC" unicode="&#x3bc;" horiz-adv-x="1214" 
d="M389 33v-410h-260v1366h260v-600q0 -184 184 -184q68 0 127 33t97 81v670h260v-692q0 -42 22.5 -66t59.5 -24q19 0 39 4l18 -221q-58 -15 -121 -15q-212 0 -266 177q-45 -79 -118 -128t-159 -49q-100 0 -143 58z" />
    <glyph glyph-name="nu" unicode="&#x3bd;" horiz-adv-x="1050" 
d="M647 0h-262l-397 989h278l271 -729q99 149 156 348t57 381h262q0 -243 -103.5 -518t-261.5 -471z" />
    <glyph glyph-name="xi" unicode="&#x3be;" horiz-adv-x="995" 
d="M600 -25q-259 0 -396.5 98.5t-137.5 268.5q0 125 71 202t176 107q-90 15 -157.5 75.5t-67.5 158.5q0 81 55 151t142 103h-176v227h798v-227h-389q-71 -19 -115.5 -67t-44.5 -109q0 -75 66 -116.5t174 -41.5h299v-223h-299q-122 0 -192 -47.5t-70 -141.5q0 -89 77 -137.5
t220 -48.5q162 0 232.5 -52.5t70.5 -162.5q0 -122 -109 -314h-276q40 54 78.5 131.5t38.5 120.5q0 24 -16 34.5t-52 10.5z" />
    <glyph glyph-name="omicron" unicode="&#x3bf;" horiz-adv-x="1175" 
d="M588 -25q-158 0 -278.5 71.5t-182 189t-61.5 260.5q0 142 61.5 258.5t182 188t278.5 71.5q159 0 280 -71.5t182.5 -188t61.5 -258.5q0 -106 -36.5 -200.5t-102 -166t-165.5 -113t-220 -41.5zM588 207q117 0 185.5 83.5t68.5 205.5q0 121 -68.5 203.5t-185.5 82.5
t-184.5 -82.5t-67.5 -203.5q0 -122 67.5 -205.5t184.5 -83.5z" />
    <glyph glyph-name="pi" unicode="&#x3c0;" horiz-adv-x="1292" 
d="M1112 0h-262v762h-408v-762h-262v762h-164v227h1260v-227h-164v-762z" />
    <glyph glyph-name="rho" unicode="&#x3c1;" horiz-adv-x="1193" 
d="M694 -25q-186 0 -305 152v-504h-260v873q0 142 58.5 258.5t174 188t267.5 71.5q115 0 211 -41.5t159.5 -112.5t98.5 -164.5t35 -199.5q0 -242 -122 -381.5t-317 -139.5zM612 207q112 0 181 80t69 209q0 121 -62.5 203.5t-172.5 82.5q-111 0 -174.5 -82.5t-63.5 -203.5
v-177q33 -47 97 -79.5t126 -32.5z" />
    <glyph glyph-name="sigma1" unicode="&#x3c2;" horiz-adv-x="1007" 
d="M618 -25q-246 0 -399 142t-153 379q0 227 147.5 372.5t376.5 145.5q260 0 391 -178l-170 -160q-71 106 -209 106q-119 0 -193.5 -79t-74.5 -207q0 -138 82.5 -213.5t214.5 -75.5q163 0 241 -53.5t78 -161.5q0 -124 -108 -314h-273q41 58 79 134t38 118q0 45 -68 45z" />
    <glyph glyph-name="sigma" unicode="&#x3c3;" horiz-adv-x="1175" 
d="M1090 440q0 -95 -33 -179t-94.5 -148t-158 -101t-216.5 -37q-158 0 -278.5 71.5t-182 189t-61.5 260.5q0 103 36.5 192.5t103.5 156.5t169.5 105.5t226.5 38.5h533v-231h-185q140 -119 140 -318zM842 489q0 88 -38.5 158t-105.5 111h-96q-125 0 -195.5 -77.5
t-70.5 -184.5q0 -122 67.5 -205.5t184.5 -83.5t185.5 82t68.5 200z" />
    <glyph glyph-name="tau" unicode="&#x3c4;" horiz-adv-x="987" 
d="M643 -25q-137 0 -209 69.5t-72 201.5v516h-319v227h901v-227h-321v-447q0 -47 24.5 -77.5t67.5 -30.5q27 0 53 9t35 20l55 -197q-71 -64 -215 -64z" />
    <glyph glyph-name="upsilon" unicode="&#x3c5;" horiz-adv-x="1181" 
d="M592 -25q-227 0 -345 127.5t-118 343.5v543h260v-538q0 -111 54 -177.5t149 -66.5q120 0 187 88.5t67 234.5q0 104 -30.5 203.5t-90.5 175.5l240 105q74 -104 112.5 -231t38.5 -253q0 -244 -141.5 -399.5t-382.5 -155.5z" />
    <glyph glyph-name="phi" unicode="&#x3c6;" horiz-adv-x="1628" 
d="M1563 496q0 -222 -157 -356.5t-462 -157.5v-359h-260v359q-308 23 -463 162t-155 380q0 172 103.5 294t276.5 196l109 -203q-105 -45 -162 -121.5t-57 -165.5q0 -134 83 -212.5t265 -98.5v801h129q370 0 560 -137t190 -381zM1292 496q0 123 -93.5 197t-254.5 83v-563
q179 19 263.5 93t84.5 190z" />
    <glyph glyph-name="chi" unicode="&#x3c7;" horiz-adv-x="1032" 
d="M1032 -377h-289l-227 459l-231 -459h-285l350 703l-330 663h287l209 -420l205 420h289l-332 -663z" />
    <glyph glyph-name="psi" unicode="&#x3c8;" horiz-adv-x="1628" 
d="M944 -377h-260v359q-276 26 -415.5 159t-139.5 351v497h260v-497q0 -115 77 -185t218 -92v1151h260v-1151q140 22 217.5 92.5t77.5 184.5v497h260v-497q0 -218 -140 -351t-415 -159v-359z" />
    <glyph glyph-name="omega" unicode="&#x3c9;" horiz-adv-x="1744" 
d="M1679 496q0 -143 -51.5 -260.5t-152 -189t-232.5 -71.5q-264 0 -371 281q-107 -281 -370 -281q-132 0 -232.5 71.5t-152 189t-51.5 260.5q0 165 57 297.5t156 220.5l196 -148q-139 -146 -139 -370q0 -122 54 -205.5t147 -83.5q96 0 150 83t54 206v249h263v-249
q0 -123 54 -206t148 -83q93 0 148 83.5t55 205.5q0 222 -141 370l198 148q99 -88 156 -220.5t57 -297.5z" />
    <glyph glyph-name="iotadieresis" unicode="&#x3ca;" horiz-adv-x="546" 
d="M629 1251q0 -58 -41.5 -98.5t-98.5 -40.5t-98 40.5t-41 98.5q0 57 41 97.5t98 40.5t98.5 -40.5t41.5 -97.5zM195 1251q0 -58 -40.5 -98.5t-97.5 -40.5q-59 0 -99 40t-40 99q0 57 40.5 97.5t98.5 40.5q57 0 97.5 -40.5t40.5 -97.5zM408 -25q-136 0 -207.5 69.5
t-71.5 201.5v743h260v-692q0 -42 22.5 -66t59.5 -24q19 0 39 4l18 -221q-58 -15 -120 -15z" />
    <glyph glyph-name="upsilondieresis" unicode="&#x3cb;" horiz-adv-x="1181" 
d="M944 1251q0 -58 -41 -98.5t-98 -40.5t-98 40.5t-41 98.5q0 57 41 97.5t98 40.5t98 -40.5t41 -97.5zM510 1251q0 -58 -40 -98.5t-97 -40.5q-59 0 -99.5 40.5t-40.5 98.5q0 57 41 97.5t99 40.5q57 0 97 -40.5t40 -97.5zM592 -25q-227 0 -345 127.5t-118 343.5v543h260v-538
q0 -111 54 -177.5t149 -66.5q120 0 187 88.5t67 234.5q0 104 -30.5 203.5t-90.5 175.5l240 105q74 -104 112.5 -231t38.5 -253q0 -244 -141.5 -399.5t-382.5 -155.5z" />
    <glyph glyph-name="omicrontonos" unicode="&#x3cc;" horiz-adv-x="1175" 
d="M623 1133h-115l43 434h215zM588 -25q-158 0 -278.5 71.5t-182 189t-61.5 260.5q0 142 61.5 258.5t182 188t278.5 71.5q159 0 280 -71.5t182.5 -188t61.5 -258.5q0 -106 -36.5 -200.5t-102 -166t-165.5 -113t-220 -41.5zM588 207q117 0 185.5 83.5t68.5 205.5
q0 121 -68.5 203.5t-185.5 82.5t-184.5 -82.5t-67.5 -203.5q0 -122 67.5 -205.5t184.5 -83.5z" />
    <glyph glyph-name="upsilontonos" unicode="&#x3cd;" horiz-adv-x="1181" 
d="M627 1133h-115l43 434h215zM592 -25q-227 0 -345 127.5t-118 343.5v543h260v-538q0 -111 54 -177.5t149 -66.5q120 0 187 88.5t67 234.5q0 104 -30.5 203.5t-90.5 175.5l240 105q74 -104 112.5 -231t38.5 -253q0 -244 -141.5 -399.5t-382.5 -155.5z" />
    <glyph glyph-name="omegatonos" unicode="&#x3ce;" horiz-adv-x="1744" 
d="M907 1133h-114l43 434h215zM1679 496q0 -143 -51.5 -260.5t-152 -189t-232.5 -71.5q-264 0 -371 281q-107 -281 -370 -281q-132 0 -232.5 71.5t-152 189t-51.5 260.5q0 165 57 297.5t156 220.5l196 -148q-139 -146 -139 -370q0 -122 54 -205.5t147 -83.5q96 0 150 83
t54 206v249h263v-249q0 -123 54 -206t148 -83q93 0 148 83.5t55 205.5q0 222 -141 370l198 148q99 -88 156 -220.5t57 -297.5z" />
    <glyph glyph-name="afii10023" unicode="&#x401;" horiz-adv-x="1193" 
d="M973 1593q0 -58 -41 -98.5t-98 -40.5t-98.5 40.5t-41.5 98.5q0 57 41.5 97.5t98.5 40.5t98 -40.5t41 -97.5zM539 1593q0 -58 -40.5 -98.5t-97.5 -40.5q-59 0 -99 40t-40 99q0 57 40.5 97.5t98.5 40.5q57 0 97.5 -40.5t40.5 -97.5zM1102 0h-967v1366h967v-256h-676v-289
h661v-256h-661v-309h676v-256z" />
    <glyph glyph-name="afii10051" unicode="&#x402;" horiz-adv-x="1589" 
d="M1053 -25v252q93 0 145.5 47.5t52.5 126.5v17q0 92 -65 142t-185 50q-141 0 -258 -45v-565h-292v1110h-400v256h1090v-256h-398v-289q143 45 293 45q127 0 226 -35t160 -96.5t92.5 -141.5t31.5 -175v-17q0 -200 -138 -313t-355 -113z" />
    <glyph glyph-name="afii10052" unicode="&#x403;" horiz-adv-x="1169" 
d="M975 1776l-332 -295h-182l274 295h240zM426 0h-291v1366h967v-256h-676v-1110z" />
    <glyph glyph-name="afii10053" unicode="&#x404;" horiz-adv-x="1406" 
d="M797 -25q-152 0 -286 52t-231.5 143.5t-153.5 224t-56 287.5t56 287.5t153.5 224t231.5 143.5t286 52q108 0 201.5 -27.5t162 -76.5t118.5 -105.5t89 -124.5l-250 -123q-44 86 -132 142t-193 56q-153 0 -261 -84t-147 -225h649v-256h-653q33 -150 143 -241t269 -91
q106 0 193.5 55.5t131.5 143.5l250 -121q-194 -336 -571 -336z" />
    <glyph glyph-name="afii10054" unicode="&#x405;" horiz-adv-x="1228" 
d="M621 -25q-363 0 -578 218l158 221q79 -82 190 -133.5t244 -51.5q114 0 175.5 44.5t61.5 107.5q0 38 -27 66.5t-72.5 46.5t-104.5 33t-124 30.5t-130 35t-124 51t-104.5 73.5t-72.5 107t-27 147q0 176 141.5 295.5t376.5 119.5q328 0 533 -190l-162 -213q-81 74 -185 112
t-212 38q-92 0 -143.5 -37.5t-51.5 -100.5q0 -38 33.5 -66.5t89 -44t126 -34t143.5 -36t143.5 -50t126 -75t89 -113.5t33.5 -162q0 -196 -139.5 -317.5t-406.5 -121.5z" />
    <glyph glyph-name="afii10055" unicode="&#x406;" horiz-adv-x="561" 
d="M426 0h-291v1366h291v-1366z" />
    <glyph glyph-name="afii10056" unicode="&#x407;" horiz-adv-x="561" 
d="M426 0h-291v1366h291v-1366zM637 1593q0 -58 -41 -98.5t-98 -40.5t-98.5 40.5t-41.5 98.5q0 57 41.5 97.5t98.5 40.5t98 -40.5t41 -97.5zM203 1593q0 -58 -40 -98.5t-97 -40.5q-59 0 -99.5 40.5t-40.5 98.5q0 57 41 97.5t99 40.5q57 0 97 -40.5t40 -97.5z" />
    <glyph glyph-name="afii10057" unicode="&#x408;" horiz-adv-x="995" 
d="M379 -25q-230 0 -367 134l127 223q103 -99 217 -99q97 0 155 60t58 160v913h291v-917q0 -158 -62.5 -266t-168.5 -158t-250 -50z" />
    <glyph glyph-name="afii10058" unicode="&#x409;" horiz-adv-x="2213" 
d="M53 -25v258q55 0 93 17.5t71.5 64.5t56.5 133.5t39 219.5l80 698h971v-485h346q108 0 196 -35.5t145.5 -96t88.5 -140t31 -169.5q0 -91 -31 -170.5t-88 -139.5t-145.5 -95t-196.5 -35h-639v1110h-416l-53 -463q-19 -166 -56 -287t-84.5 -194.5t-114.5 -117t-135.5 -58.5
t-158.5 -15zM1671 625h-307v-369h307q88 0 144.5 49.5t56.5 134.5q0 83 -56.5 134t-144.5 51z" />
    <glyph glyph-name="afii10059" unicode="&#x40a;" horiz-adv-x="2213" 
d="M135 0v1366h291v-537h645v537h293v-537h373q202 0 318 -118.5t116 -294.5q0 -178 -115.5 -297t-318.5 -119h-666v573h-645v-573h-291zM1364 256h336q75 0 123.5 44t48.5 116t-48.5 114.5t-123.5 42.5h-336v-317z" />
    <glyph glyph-name="afii10060" unicode="&#x40b;" horiz-adv-x="1652" 
d="M1251 0v362q0 129 -63.5 188.5t-186.5 59.5q-141 0 -258 -45v-565h-292v1110h-400v256h1090v-256h-398v-289q143 45 293 45q253 0 381.5 -135t128.5 -369v-362h-295z" />
    <glyph glyph-name="afii10061" unicode="&#x40c;" horiz-adv-x="1302" 
d="M1051 1776l-332 -295h-182l274 295h240zM1305 0h-359l-414 547l-106 -127v-420h-291v1366h291v-610l483 610h359l-543 -641z" />
    <glyph glyph-name="afii10062" unicode="&#x40e;" horiz-adv-x="1320" 
d="M319 -25q-91 0 -176.5 28t-132.5 71l111 233q89 -74 176 -74q73 0 115.5 32t83.5 110l-504 991h330l337 -725l340 725h330l-563 -1104q-34 -67 -72 -116t-91 -89t-124 -61t-160 -21zM1020 1610q-62 -84 -155.5 -132t-202.5 -48q-108 0 -202.5 48t-158.5 132l115 96
q90 -127 246 -127q153 0 243 127z" />
    <glyph glyph-name="afii10145" unicode="&#x40f;" horiz-adv-x="1497" 
d="M135 0v1366h291v-1110h645v1110h293v-1366h-469v-260h-291v260h-469z" />
    <glyph glyph-name="afii10017" unicode="&#x410;" horiz-adv-x="1400" 
d="M1409 0h-332l-84 231h-585l-86 -231h-332l528 1366h365zM913 487l-213 588l-213 -588h426z" />
    <glyph glyph-name="afii10018" unicode="&#x411;" horiz-adv-x="1277" 
d="M135 1366h998v-256h-707v-242h354q141 0 245.5 -60t156 -157t51.5 -217t-51 -217t-155.5 -157t-246.5 -60h-645v1366zM741 612h-315v-356h315q86 0 140.5 48.5t54.5 129.5q0 82 -54.5 130t-140.5 48z" />
    <glyph glyph-name="afii10019" unicode="&#x412;" horiz-adv-x="1357" 
d="M877 0h-742v1366h719q94 0 170.5 -28.5t124 -77.5t73 -111t25.5 -131q0 -124 -67 -208t-168 -105q110 -17 186 -113t76 -223q0 -161 -104.5 -265t-292.5 -104zM791 819q73 0 116 41.5t43 106.5q0 66 -43.5 107.5t-115.5 41.5h-365v-297h365zM801 252q83 0 129.5 42
t46.5 116q0 68 -46.5 113.5t-129.5 45.5h-375v-317h375z" />
    <glyph glyph-name="afii10020" unicode="&#x413;" horiz-adv-x="1169" 
d="M426 0h-291v1366h967v-256h-676v-1110z" />
    <glyph glyph-name="afii10021" unicode="&#x414;" horiz-adv-x="1521" 
d="M53 -252v485q58 7 94.5 25t70.5 63.5t56.5 129.5t38.5 217l80 698h971v-1110h123v-508h-291v252h-852v-252h-291zM602 647q-29 -263 -166 -391h635v854h-416z" />
    <glyph glyph-name="afii10022" unicode="&#x415;" horiz-adv-x="1193" 
d="M1102 0h-967v1366h967v-256h-676v-289h661v-256h-661v-309h676v-256z" />
    <glyph glyph-name="afii10024" unicode="&#x416;" horiz-adv-x="1947" 
d="M356 0h-356l578 725l-543 641h358l434 -549v549h293v-549l432 549h361l-543 -641l578 -725h-357l-413 547l-58 -70v-477h-293v477l-57 70z" />
    <glyph glyph-name="afii10025" unicode="&#x417;" horiz-adv-x="1249" 
d="M604 -25q-183 0 -334 62t-229 158l152 194q68 -71 181.5 -113.5t217.5 -42.5q133 0 209 48.5t76 126.5q0 81 -73.5 119t-228.5 38h-276v256h276q127 0 203 37t76 109q0 78 -78 119.5t-201 41.5q-102 0 -200.5 -36.5t-169.5 -104.5l-146 182q87 98 229.5 157.5t315.5 59.5
q242 0 391.5 -100.5t149.5 -269.5q0 -122 -87.5 -205.5t-209.5 -105.5q54 -5 108 -28.5t101.5 -63t77.5 -101.5t30 -135q0 -116 -72 -208t-200 -143t-289 -51z" />
    <glyph glyph-name="afii10026" unicode="&#x418;" horiz-adv-x="1492" 
d="M416 0h-281v1366h291v-883l633 883h299v-1366h-291v915z" />
    <glyph glyph-name="afii10027" unicode="&#x419;" horiz-adv-x="1492" 
d="M416 0h-281v1366h291v-883l633 883h299v-1366h-291v915zM1106 1610q-62 -84 -155.5 -132t-202.5 -48q-108 0 -202.5 48t-158.5 132l115 96q90 -127 246 -127q153 0 243 127z" />
    <glyph glyph-name="afii10028" unicode="&#x41a;" horiz-adv-x="1302" 
d="M1305 0h-359l-414 547l-106 -127v-420h-291v1366h291v-610l483 610h359l-543 -641z" />
    <glyph glyph-name="afii10029" unicode="&#x41b;" horiz-adv-x="1497" 
d="M53 -25v258q55 0 93 17.5t71.5 64.5t56.5 133.5t39 219.5l80 698h971v-1366h-293v1110h-416l-53 -463q-19 -166 -56 -287t-84.5 -194.5t-114.5 -117t-135.5 -58.5t-158.5 -15z" />
    <glyph glyph-name="afii10030" unicode="&#x41c;" horiz-adv-x="1751" 
d="M1616 0h-293v956l-385 -956h-127l-385 956v-956h-291v1366h408l331 -825l332 825h410v-1366z" />
    <glyph glyph-name="afii10031" unicode="&#x41d;" horiz-adv-x="1497" 
d="M1364 0h-293v573h-645v-573h-291v1366h291v-537h645v537h293v-1366z" />
    <glyph glyph-name="afii10032" unicode="&#x41e;" horiz-adv-x="1566" 
d="M782 -25q-152 0 -284.5 53t-226.5 145.5t-147.5 224.5t-53.5 284t53.5 284t147.5 224.5t226.5 145.5t284.5 53q205 0 368 -90t255 -252t92 -365t-92 -365t-255 -252t-368 -90zM782 233q186 0 301 127.5t115 321.5q0 195 -115 321.5t-301 126.5t-299.5 -126.5
t-113.5 -321.5q0 -194 113.5 -321.5t299.5 -127.5z" />
    <glyph glyph-name="afii10033" unicode="&#x41f;" horiz-adv-x="1497" 
d="M1364 0h-293v1110h-645v-1110h-291v1366h1229v-1366z" />
    <glyph glyph-name="afii10034" unicode="&#x420;" horiz-adv-x="1277" 
d="M426 0h-291v1366h639q108 0 196.5 -35t145 -95t87 -139.5t30.5 -170.5q0 -90 -30.5 -169.5t-87.5 -140t-145 -96t-196 -35.5h-348v-485zM735 741q88 0 144.5 51t56.5 134q0 85 -56.5 134.5t-144.5 49.5h-309v-369h309z" />
    <glyph glyph-name="afii10035" unicode="&#x421;" horiz-adv-x="1406" 
d="M797 -25q-152 0 -286 52t-231.5 143.5t-153.5 224t-56 287.5t56 287.5t153.5 224t231.5 143.5t286 52q108 0 201.5 -27.5t162 -76.5t118.5 -105.5t89 -124.5l-250 -123q-44 86 -131 142t-190 56q-186 0 -307 -127t-121 -321t121 -321.5t307 -127.5q103 0 190 56t131 143
l250 -121q-194 -336 -571 -336z" />
    <glyph glyph-name="afii10036" unicode="&#x422;" horiz-adv-x="1191" 
d="M743 0h-292v1110h-400v256h1090v-256h-398v-1110z" />
    <glyph glyph-name="afii10037" unicode="&#x423;" horiz-adv-x="1320" 
d="M319 -25q-91 0 -176.5 28t-132.5 71l111 233q89 -74 176 -74q73 0 115.5 32t83.5 110l-504 991h330l337 -725l340 725h330l-563 -1104q-34 -67 -72 -116t-91 -89t-124 -61t-160 -21z" />
    <glyph glyph-name="afii10038" unicode="&#x424;" horiz-adv-x="1751" 
d="M1020 0h-291v137q-312 26 -485.5 168t-173.5 377q0 233 173.5 375t485.5 170v139h291v-139q313 -28 486 -169.5t173 -375.5q0 -235 -173.5 -377t-485.5 -168v-137zM1382 682q0 117 -92.5 190t-269.5 95v-570q176 20 269 93.5t93 191.5zM369 682q0 -117 92 -190t268 -95
v570q-176 -22 -268 -95.5t-92 -189.5z" />
    <glyph glyph-name="afii10039" unicode="&#x425;" horiz-adv-x="1368" 
d="M1374 0h-348l-342 500l-344 -500h-346l495 700l-464 666h346l313 -467l309 467h350l-464 -664z" />
    <glyph glyph-name="afii10040" unicode="&#x426;" horiz-adv-x="1521" 
d="M1196 -252v252h-1061v1366h291v-1110h645v1110h293v-1110h123v-508h-291z" />
    <glyph glyph-name="afii10041" unicode="&#x427;" horiz-adv-x="1329" 
d="M393 1366v-383q0 -130 63.5 -189t186.5 -59q148 0 260 45v586h291v-1366h-291v524q-147 -45 -295 -45q-253 0 -380.5 134.5t-127.5 369.5v383h293z" />
    <glyph glyph-name="afii10042" unicode="&#x428;" horiz-adv-x="2013" 
d="M1585 1366h293v-1366h-1743v1366h291v-1110h434v1110h293v-1110h432v1110z" />
    <glyph glyph-name="afii10043" unicode="&#x429;" horiz-adv-x="2035" 
d="M1585 1366h293v-1110h125v-508h-293v252h-1575v1366h291v-1110h434v1110h293v-1110h432v1110z" />
    <glyph glyph-name="afii10044" unicode="&#x42a;" horiz-adv-x="1593" 
d="M1090 0h-639v1110h-400v256h692v-485h347q143 0 249 -61t158.5 -160t52.5 -220q0 -122 -52 -220.5t-158 -159t-250 -60.5zM1051 625h-308v-369h308q88 0 144 49.5t56 134.5q0 84 -56 134.5t-144 50.5z" />
    <glyph glyph-name="afii10045" unicode="&#x42b;" horiz-adv-x="1775" 
d="M135 1366h291v-485h348q108 0 196 -35.5t145 -96t87.5 -140t30.5 -169.5q0 -91 -30.5 -170.5t-87 -139.5t-145 -95t-196.5 -35h-639v1366zM735 625h-309v-369h309q88 0 144.5 49.5t56.5 134.5q0 83 -56.5 134t-144.5 51zM1640 0h-292v1366h292v-1366z" />
    <glyph glyph-name="afii10046" unicode="&#x42c;" horiz-adv-x="1277" 
d="M135 1366h291v-485h348q108 0 196 -35.5t145 -96t87.5 -140t30.5 -169.5q0 -91 -30.5 -170.5t-87 -139.5t-145 -95t-196.5 -35h-639v1366zM735 625h-309v-369h309q88 0 144.5 49.5t56.5 134.5q0 83 -56.5 134t-144.5 51z" />
    <glyph glyph-name="afii10047" unicode="&#x42d;" horiz-adv-x="1406" 
d="M608 -25q-87 0 -165 19t-137.5 50t-111.5 75.5t-88 91t-67 100.5l250 121q44 -88 131.5 -143.5t193.5 -55.5q156 0 267 91t145 241h-655v256h649q-39 140 -147.5 224.5t-258.5 84.5q-105 0 -193 -56t-132 -142l-250 123q189 334 569 334q205 0 370.5 -88.5t261 -250.5
t95.5 -368t-95.5 -368t-261 -250.5t-370.5 -88.5z" />
    <glyph glyph-name="afii10048" unicode="&#x42e;" horiz-adv-x="2136" 
d="M1352 -25q-281 0 -475.5 165.5t-231.5 432.5h-219v-573h-291v1366h291v-537h225q48 251 239.5 405.5t461.5 154.5q204 0 367 -90.5t254 -252t91 -364.5t-91 -364.5t-254 -252t-367 -90.5zM1352 233q186 0 300.5 127.5t114.5 321.5q0 195 -114.5 321.5t-300.5 126.5
q-188 0 -302 -126.5t-114 -321.5q0 -194 114.5 -321.5t301.5 -127.5z" />
    <glyph glyph-name="afii10049" unicode="&#x42f;" horiz-adv-x="1316" 
d="M410 0h-334l307 520q-58 14 -109.5 45t-95 79.5t-69 121.5t-25.5 160q0 194 124.5 317t334.5 123h639v-1366h-291v485h-211zM586 741h305v369h-305q-90 0 -147.5 -49.5t-57.5 -134.5t57.5 -135t147.5 -50z" />
    <glyph glyph-name="afii10065" unicode="&#x430;" horiz-adv-x="1112" 
d="M983 0h-260v102q-51 -60 -133.5 -93.5t-179.5 -33.5q-61 0 -120.5 21t-110.5 60t-82 103.5t-31 143.5q0 67 20.5 122t55 91t79.5 60.5t92.5 35.5t96.5 11q99 0 181.5 -31.5t131.5 -89.5v133q0 75 -59.5 120.5t-157.5 45.5q-163 0 -289 -117l-98 174q178 156 432 156
q89 0 163 -19t136.5 -61t97.5 -117t35 -178v-639zM514 152q65 0 121.5 22t87.5 64v122q-31 42 -87.5 64t-121.5 22q-80 0 -133 -39.5t-53 -109.5q0 -67 53.5 -106t132.5 -39z" />
    <glyph glyph-name="afii10066" unicode="&#x431;" horiz-adv-x="1181" 
d="M588 207q117 0 185.5 84t68.5 209q0 118 -68.5 200t-185.5 82t-184.5 -82t-67.5 -200q0 -125 67.5 -209t184.5 -84zM588 -25q-161 0 -280.5 74.5t-180.5 202t-61 289.5q0 354 127 530.5t387 210.5q122 18 172.5 37.5t50.5 46.5h270q0 -215 -411 -266q-308 -41 -357 -248
q60 78 147.5 120t190.5 42t191.5 -42t148.5 -113t93.5 -164.5t33.5 -196.5q0 -141 -60.5 -259t-181 -191t-280.5 -73z" />
    <glyph glyph-name="afii10067" unicode="&#x432;" horiz-adv-x="1200" 
d="M774 0h-645v989h627q144 0 223.5 -74t79.5 -180q0 -85 -47.5 -144.5t-120.5 -80.5q82 -19 135 -86t53 -156q0 -117 -80.5 -192.5t-224.5 -75.5zM711 213q47 0 74.5 24.5t27.5 67.5q0 39 -27 65.5t-75 26.5h-322v-184h322zM702 610q42 0 67.5 23.5t25.5 58.5
q0 37 -25.5 60.5t-67.5 23.5h-313v-166h313z" />
    <glyph glyph-name="afii10068" unicode="&#x433;" horiz-adv-x="929" 
d="M893 989v-227h-504v-762h-260v989h764z" />
    <glyph glyph-name="afii10069" unicode="&#x434;" horiz-adv-x="1202" 
d="M37 -252v469q45 8 71 29t49 84.5t38 179.5l63 479h801v-762h108v-479h-260v252h-608v-252h-262zM485 762l-30 -268q-21 -179 -115 -267h459v535h-314z" />
    <glyph glyph-name="afii10070" unicode="&#x435;" horiz-adv-x="1132" 
d="M594 -25q-229 0 -378.5 143.5t-149.5 377.5q0 143 64.5 261t182.5 187.5t265 69.5q221 0 358 -151t137 -394v-57h-735q13 -99 88.5 -164.5t196.5 -65.5q66 0 142 27.5t122 71.5l114 -168q-72 -66 -180.5 -102t-226.5 -36zM821 588q-2 38 -16.5 74.5t-42 70t-75.5 54
t-109 20.5q-58 0 -104.5 -20t-74.5 -53t-44 -70t-21 -76h487z" />
    <glyph glyph-name="afii10072" unicode="&#x436;" horiz-adv-x="1536" 
d="M326 0h-324l401 541l-389 448h320l303 -358v358h262v-358l303 358h320l-389 -448l401 -541h-324l-264 381l-47 -51v-330h-262v330l-47 51z" />
    <glyph glyph-name="afii10073" unicode="&#x437;" horiz-adv-x="1032" 
d="M489 -25q-149 0 -267 42.5t-193 115.5l118 162q66 -56 157 -84.5t185 -28.5q98 0 151.5 29.5t53.5 77.5q0 110 -221 110h-203v201h203q203 0 203 107q0 44 -55.5 72t-143.5 28q-191 0 -307 -113l-127 154q76 76 183 120t237 44q229 1 356 -71.5t127 -199.5
q0 -90 -76.5 -153.5t-181.5 -79.5q47 -3 95 -19.5t89.5 -44.5t68 -73t26.5 -99q0 -132 -129.5 -214.5t-348.5 -82.5z" />
    <glyph glyph-name="afii10074" unicode="&#x438;" horiz-adv-x="1187" 
d="M379 0h-250v989h260v-598l408 598h262v-989h-260v621z" />
    <glyph glyph-name="afii10075" unicode="&#x439;" horiz-adv-x="1187" 
d="M379 0h-250v989h260v-598l408 598h262v-989h-260v621zM952 1268q-63 -85 -156 -133t-202 -48q-107 0 -202 48.5t-159 132.5l115 96q90 -127 246 -127q154 0 244 127z" />
    <glyph glyph-name="afii10076" unicode="&#x43a;" horiz-adv-x="1095" 
d="M1096 0h-326l-262 381l-119 -127v-254h-260v989h260v-440l375 440h319l-391 -448z" />
    <glyph glyph-name="afii10077" unicode="&#x43b;" horiz-adv-x="1187" 
d="M37 -25v213q61 0 98 73t60 249l63 479h801v-989h-260v762h-314l-32 -283q-31 -259 -130 -381.5t-286 -122.5z" />
    <glyph glyph-name="afii10078" unicode="&#x43c;" horiz-adv-x="1427" 
d="M1298 0h-260v643l-264 -643h-119l-266 643v-643h-260v989h342l244 -590l239 590h344v-989z" />
    <glyph glyph-name="afii10079" unicode="&#x43d;" horiz-adv-x="1187" 
d="M389 0h-260v989h260v-366h410v366h260v-989h-260v395h-410v-395z" />
    <glyph glyph-name="afii10080" unicode="&#x43e;" horiz-adv-x="1175" 
d="M588 -25q-158 0 -278.5 71.5t-182 189t-61.5 260.5q0 142 61.5 258.5t182 188t278.5 71.5q159 0 280 -71.5t182.5 -188t61.5 -258.5q0 -106 -36.5 -200.5t-102 -166t-165.5 -113t-220 -41.5zM588 207q117 0 185.5 83.5t68.5 205.5q0 121 -68.5 203.5t-185.5 82.5
t-184.5 -82.5t-67.5 -203.5q0 -122 67.5 -205.5t184.5 -83.5z" />
    <glyph glyph-name="afii10081" unicode="&#x43f;" horiz-adv-x="1187" 
d="M1059 0h-260v762h-410v-762h-260v989h930v-989z" />
    <glyph glyph-name="afii10082" unicode="&#x440;" horiz-adv-x="1193" 
d="M694 -25q-186 0 -305 152v-504h-260v1366h260v-125q119 150 305 150q195 0 317 -138t122 -380t-122 -381.5t-317 -139.5zM612 207q112 0 181 80t69 209q0 128 -69 207t-181 79q-63 0 -127 -32.5t-96 -79.5v-351q33 -47 97 -79.5t126 -32.5z" />
    <glyph glyph-name="afii10083" unicode="&#x441;" horiz-adv-x="1021" 
d="M590 -25q-229 0 -376.5 146.5t-147.5 374.5q0 227 147.5 372.5t376.5 145.5q260 0 391 -178l-170 -160q-71 106 -209 106q-119 0 -193.5 -79t-74.5 -207q0 -129 74.5 -209t193.5 -80q134 0 209 106l170 -157q-57 -79 -154 -130t-237 -51z" />
    <glyph glyph-name="afii10084" unicode="&#x442;" horiz-adv-x="884" 
d="M573 0h-262v762h-276v227h815v-227h-277v-762z" />
    <glyph glyph-name="afii10085" unicode="&#x443;" horiz-adv-x="1050" 
d="M94 -387l39 233q37 -16 82 -16q103 0 137 72l37 84l-401 1003h278l258 -688l258 688h281l-465 -1151q-52 -131 -144 -183.5t-231 -55.5q-71 0 -129 14z" />
    <glyph glyph-name="afii10086" unicode="&#x444;" horiz-adv-x="1722" 
d="M467 1014q157 0 264 -152v504h260v-502q50 72 118 111t146 39q168 0 273.5 -138t105.5 -380t-105.5 -381.5t-273.5 -139.5q-160 0 -264 152v-504h-260v504q-49 -73 -117.5 -112.5t-146.5 -39.5q-168 0 -273.5 138.5t-105.5 380.5t105.5 381t273.5 139zM551 782
q-88 0 -144.5 -80t-56.5 -208q0 -127 56.5 -207t144.5 -80q50 0 101 32t79 80v351q-27 47 -78.5 79.5t-101.5 32.5zM1169 207q89 0 145 80t56 209q0 127 -56 206.5t-145 79.5q-49 0 -100.5 -32.5t-77.5 -79.5v-351q27 -46 78 -79t100 -33z" />
    <glyph glyph-name="afii10087" unicode="&#x445;" horiz-adv-x="1032" 
d="M1032 0h-291l-225 334l-227 -334h-289l350 508l-330 481h291l205 -305l203 305h291l-332 -481z" />
    <glyph glyph-name="afii10088" unicode="&#x446;" horiz-adv-x="1202" 
d="M907 -252v252h-778v989h260v-762h410v762h260v-762h108v-479h-260z" />
    <glyph glyph-name="afii10089" unicode="&#x447;" horiz-adv-x="1155" 
d="M98 989h260v-268q0 -101 51 -142.5t158 -41.5q125 0 199 38v414h262v-989h-262v367q-112 -62 -289 -62q-200 0 -289.5 83t-89.5 243v358z" />
    <glyph glyph-name="afii10090" unicode="&#x448;" horiz-adv-x="1685" 
d="M1294 989h262v-989h-1427v989h260v-762h324v762h260v-762h321v762z" />
    <glyph glyph-name="afii10091" unicode="&#x449;" horiz-adv-x="1712" 
d="M1294 989h262v-762h123v-479h-262v252h-1288v989h260v-762h324v762h260v-762h321v762z" />
    <glyph glyph-name="afii10092" unicode="&#x44a;" horiz-adv-x="1316" 
d="M911 0h-600v762h-276v227h538v-340h338q164 0 254 -92.5t90 -230.5t-92 -232t-252 -94zM872 432h-299v-213h299q54 0 85.5 30t31.5 77t-31.5 76.5t-85.5 29.5z" />
    <glyph glyph-name="afii10093" unicode="&#x44b;" horiz-adv-x="1589" 
d="M129 989h260v-340h338q164 0 254 -92.5t90 -230.5t-92 -232t-252 -94h-598v989zM688 432h-299v-213h299q54 0 85.5 30t31.5 77t-31.5 76.5t-85.5 29.5zM1462 0h-262v989h262v-989z" />
    <glyph glyph-name="afii10094" unicode="&#x44c;" horiz-adv-x="1132" 
d="M129 989h260v-340h338q164 0 254 -92.5t90 -230.5t-92 -232t-252 -94h-598v989zM688 432h-299v-213h299q54 0 85.5 30t31.5 77t-31.5 76.5t-85.5 29.5z" />
    <glyph glyph-name="afii10095" unicode="&#x44d;" horiz-adv-x="1021" 
d="M432 -25q-141 0 -239 51.5t-152 129.5l160 143q38 -54 93.5 -85.5t121.5 -31.5q99 0 168 56.5t92 158.5h-400v201h398q-23 99 -91 154t-167 55q-134 0 -215 -115l-160 144q54 77 152 127.5t239 50.5q228 0 376 -145.5t148 -372.5q0 -228 -148 -374.5t-376 -146.5z" />
    <glyph glyph-name="afii10096" unicode="&#x44e;" horiz-adv-x="1656" 
d="M1067 -25q-208 0 -345 117.5t-169 302.5h-164v-395h-260v989h260v-366h170q38 172 173.5 281.5t334.5 109.5q159 0 280 -71.5t182.5 -188t61.5 -258.5q0 -106 -36.5 -200.5t-102 -166t-165.5 -113t-220 -41.5zM1067 207q118 0 186 83t68 206q0 121 -68 203.5t-186 82.5
q-117 0 -184.5 -82.5t-67.5 -203.5q0 -122 67.5 -205.5t184.5 -83.5z" />
    <glyph glyph-name="afii10097" unicode="&#x44f;" horiz-adv-x="1173" 
d="M391 0h-295l230 358q-93 24 -156.5 104t-63.5 204q0 136 92.5 229.5t250.5 93.5h600v-989h-261v340h-202zM489 557h299v213h-299q-54 0 -86 -29t-32 -75q0 -48 32 -78.5t86 -30.5z" />
    <glyph glyph-name="afii10071" unicode="&#x451;" horiz-adv-x="1132" 
d="M936 1251q0 -58 -41 -98.5t-98 -40.5t-98.5 40.5t-41.5 98.5q0 57 41.5 97.5t98.5 40.5t98 -40.5t41 -97.5zM502 1251q0 -58 -40 -98.5t-97 -40.5q-59 0 -99.5 40.5t-40.5 98.5q0 57 41 97.5t99 40.5q57 0 97 -40.5t40 -97.5zM594 -25q-229 0 -378.5 143.5t-149.5 377.5
q0 143 64.5 261t182.5 187.5t265 69.5q221 0 358 -151t137 -394v-57h-735q13 -99 88.5 -164.5t196.5 -65.5q66 0 142 27.5t122 71.5l114 -168q-72 -66 -180.5 -102t-226.5 -36zM821 588q-2 38 -16.5 74.5t-42 70t-75.5 54t-109 20.5q-58 0 -104.5 -20t-74.5 -53t-44 -70
t-21 -76h487z" />
    <glyph glyph-name="afii10099" unicode="&#x452;" horiz-adv-x="1196" 
d="M696 1081h-299v-221q53 64 144 109t204 45q160 0 241 -82t81 -230v-729q0 -174 -89 -274t-263 -100q-90 0 -140.5 15t-107.5 54l72 195q60 -51 133 -51q62 0 98.5 40.5t36.5 120.5v629q0 98 -47.5 139t-136.5 41q-70 0 -129 -33.5t-97 -82.5v-666h-260v1081h-121v150h121
v135h260v-135h299v-150z" />
    <glyph glyph-name="afii10100" unicode="&#x453;" horiz-adv-x="929" 
d="M897 1434l-332 -295h-182l274 295h240zM893 989v-227h-504v-762h-260v989h764z" />
    <glyph glyph-name="afii10101" unicode="&#x454;" horiz-adv-x="1021" 
d="M590 -25q-229 0 -376.5 146.5t-147.5 374.5q0 227 147.5 372.5t376.5 145.5q260 0 391 -178l-160 -144q-38 54 -94.5 84.5t-122.5 30.5q-97 0 -166 -55t-94 -154h399v-201h-399q23 -102 92 -158.5t168 -56.5q66 0 122.5 31.5t94.5 85.5l160 -143q-57 -79 -154 -130
t-237 -51z" />
    <glyph glyph-name="afii10102" unicode="&#x455;" horiz-adv-x="976" 
d="M485 -25q-129 0 -246.5 41t-195.5 113l113 182q57 -54 155.5 -94.5t186.5 -40.5q82 0 124 29.5t42 77.5q0 33 -32.5 54t-84.5 33t-114.5 23.5t-125 32t-114.5 51.5t-84.5 88.5t-32.5 136.5q0 131 109 221.5t296 90.5q230 0 400 -135l-105 -179q-46 49 -126 82t-167 33
q-69 0 -112 -28t-43 -70q0 -29 32.5 -48t84 -31t113.5 -23.5t124.5 -33.5t114 -54.5t84 -92.5t32.5 -141q0 -139 -114 -228.5t-314 -89.5z" />
    <glyph glyph-name="afii10103" unicode="&#x456;" horiz-adv-x="518" 
d="M258 1096q-63 0 -109.5 45.5t-46.5 109.5t46 109t110 45q65 0 110.5 -45t45.5 -109t-45.5 -109.5t-110.5 -45.5zM389 0h-260v989h260v-989z" />
    <glyph glyph-name="afii10104" unicode="&#x457;" horiz-adv-x="518" 
d="M614 1251q0 -58 -41 -98.5t-98 -40.5t-98 40.5t-41 98.5q0 57 41 97.5t98 40.5t98 -40.5t41 -97.5zM180 1251q0 -58 -40 -98.5t-97 -40.5q-59 0 -99 40t-40 99q0 57 40.5 97.5t98.5 40.5q57 0 97 -40.5t40 -97.5zM389 0h-260v989h260v-989z" />
    <glyph glyph-name="afii10105" unicode="&#x458;" horiz-adv-x="518" 
d="M258 1096q-63 0 -109.5 45.5t-46.5 109.5t46 109t110 45q65 0 110.5 -45t45.5 -109t-45.5 -109.5t-110.5 -45.5zM37 -401q-90 0 -140.5 15t-107.5 54l72 195q60 -51 133 -51q62 0 98.5 40.5t36.5 120.5v1016h260v-1016q0 -174 -89 -274t-263 -100z" />
    <glyph glyph-name="afii10106" unicode="&#x459;" horiz-adv-x="1802" 
d="M37 -25v213q61 0 98 73t60 249l63 479h801v-340h338q164 0 254 -92.5t90 -230.5t-92 -232t-252 -94h-598v762h-314l-32 -283q-31 -259 -130 -381.5t-286 -122.5zM1358 432h-299v-213h299q54 0 85.5 30t31.5 77t-31.5 76.5t-85.5 29.5z" />
    <glyph glyph-name="afii10107" unicode="&#x45a;" horiz-adv-x="1802" 
d="M389 0h-260v989h260v-360h410v360h260v-360h350q159 0 245.5 -90.5t86.5 -225.5q0 -132 -89 -222.5t-243 -90.5h-610v401h-410v-401zM1370 410h-311v-191h311q49 0 77 26t28 68t-28.5 69.5t-76.5 27.5z" />
    <glyph glyph-name="afii10108" unicode="&#x45b;" horiz-adv-x="1196" 
d="M694 1081h-297v-221q53 64 144 109t204 45q160 0 241 -82t81 -230v-702h-260v602q0 98 -47 139t-137 41q-70 0 -129 -33.5t-97 -82.5v-666h-260v1081h-121v148h121v137h260v-137h297v-148z" />
    <glyph glyph-name="afii10109" unicode="&#x45c;" horiz-adv-x="1095" 
d="M938 1434l-332 -295h-182l274 295h240zM1096 0h-326l-262 381l-119 -127v-254h-260v989h260v-440l375 440h319l-391 -448z" />
    <glyph glyph-name="afii10110" unicode="&#x45e;" horiz-adv-x="1050" 
d="M94 -387l39 233q37 -16 82 -16q103 0 137 72l37 84l-401 1003h278l258 -688l258 688h281l-465 -1151q-52 -131 -144 -183.5t-231 -55.5q-71 0 -129 14zM885 1268q-62 -85 -156 -133t-203 -48q-107 0 -201.5 48.5t-158.5 132.5l115 96q90 -127 245 -127q154 0 244 127z
" />
    <glyph glyph-name="afii10193" unicode="&#x45f;" horiz-adv-x="1187" 
d="M463 -258v258h-334v989h260v-762h410v762h260v-989h-334v-258h-262z" />
    <glyph glyph-name="afii10050" unicode="&#x490;" horiz-adv-x="1169" 
d="M426 1110v-1110h-291v1366h674v252h293v-508h-676z" />
    <glyph glyph-name="afii10098" unicode="&#x491;" horiz-adv-x="929" 
d="M389 762v-762h-260v989h504v258h260v-485h-504z" />
    <glyph glyph-name="uni1E02" unicode="&#x1e02;" horiz-adv-x="1357" 
d="M877 0h-742v1366h719q94 0 170.5 -28.5t124 -77.5t73 -111t25.5 -131q0 -124 -67 -208t-168 -105q110 -17 186 -113t76 -223q0 -161 -104.5 -265t-292.5 -104zM791 819q73 0 116 41.5t43 106.5q0 66 -43.5 107.5t-115.5 41.5h-365v-297h365zM801 252q83 0 129.5 42
t46.5 116q0 68 -46.5 113.5t-129.5 45.5h-375v-317h375zM680 1454q-58 0 -98.5 40t-40.5 99q0 57 40.5 98.5t98.5 41.5q56 0 96.5 -41.5t40.5 -98.5q0 -58 -40.5 -98.5t-96.5 -40.5z" />
    <glyph glyph-name="uni1E03" unicode="&#x1e03;" horiz-adv-x="1200" 
d="M389 317q32 -47 96 -78.5t127 -31.5q114 0 183 79t69 208t-69 208.5t-183 79.5q-63 0 -127 -32.5t-96 -81.5v-351zM389 0h-260v1366h260v-504q58 74 137 113t168 39q193 0 316 -140.5t123 -379.5q0 -241 -123 -380t-316 -139q-184 0 -305 152v-127zM614 1454
q-58 0 -98.5 40t-40.5 99q0 57 40.5 98.5t98.5 41.5q56 0 97 -41.5t41 -98.5q0 -58 -41 -98.5t-97 -40.5z" />
    <glyph glyph-name="uni1E0A" unicode="&#x1e0a;" horiz-adv-x="1470" 
d="M674 0h-539v1366h539q212 0 377 -84.5t256.5 -240.5t91.5 -359t-91.5 -358.5t-256.5 -239.5t-377 -84zM674 256q196 0 312 123t116 303q0 189 -112 308.5t-316 119.5h-248v-854h248zM735 1454q-59 0 -99 40t-40 99q0 57 40.5 98.5t98.5 41.5q56 0 96.5 -41.5t40.5 -98.5
q0 -58 -40.5 -98.5t-96.5 -40.5z" />
    <glyph glyph-name="uni1E0B" unicode="&#x1e0b;" horiz-adv-x="1200" 
d="M1071 0h-262v127q-121 -152 -305 -152q-193 0 -315.5 138.5t-122.5 380.5q0 239 122.5 379.5t315.5 140.5q89 0 168 -39t137 -113v504h262v-1366zM584 207q66 0 129.5 31.5t95.5 80.5v351q-32 49 -95.5 80.5t-129.5 31.5q-111 0 -180.5 -79.5t-69.5 -208.5
q0 -127 70 -207t180 -80zM590 1454q-58 0 -98.5 40t-40.5 99q0 57 40.5 98.5t98.5 41.5q56 0 96.5 -41.5t40.5 -98.5q0 -58 -40.5 -98.5t-96.5 -40.5z" />
    <glyph glyph-name="uni1E1E" unicode="&#x1e1e;" horiz-adv-x="1169" 
d="M623 1454q-59 0 -99.5 40.5t-40.5 98.5q0 57 41 98.5t99 41.5q56 0 96.5 -41.5t40.5 -98.5q0 -58 -40.5 -98.5t-96.5 -40.5zM426 0h-291v1366h967v-256h-676v-289h661v-256h-661v-565z" />
    <glyph glyph-name="uni1E1F" unicode="&#x1e1f;" horiz-adv-x="669" 
d="M522 1454q-58 0 -98.5 40t-40.5 99q0 57 40.5 98.5t98.5 41.5q56 0 96.5 -41.5t40.5 -98.5q0 -58 -40.5 -98.5t-96.5 -40.5zM449 0h-263v762h-163v227h163v53q0 157 92 250.5t242 93.5q173 0 258 -92l-98 -153q-41 41 -109 41q-56 0 -89 -36.5t-33 -103.5v-53h200v-227
h-200v-762z" />
    <glyph glyph-name="uni1E22" unicode="&#x1e22;" horiz-adv-x="1497" 
d="M1364 0h-293v573h-645v-573h-291v1366h291v-537h645v537h293v-1366zM750 1454q-59 0 -99.5 40.5t-40.5 98.5q0 57 41 98.5t99 41.5q56 0 96.5 -41.5t40.5 -98.5q0 -58 -40.5 -98.5t-96.5 -40.5z" />
    <glyph glyph-name="uni1E23" unicode="&#x1e23;" horiz-adv-x="1187" 
d="M1059 0h-260v602q0 98 -47.5 139t-137.5 41q-70 0 -128.5 -33.5t-96.5 -82.5v-666h-260v1366h260v-506q53 64 144 109t204 45q160 0 241 -82t81 -230v-702zM596 1454q-58 0 -98.5 40t-40.5 99q0 57 40.5 98.5t98.5 41.5q56 0 96.5 -41.5t40.5 -98.5q0 -58 -40.5 -98.5
t-96.5 -40.5z" />
    <glyph glyph-name="uni1E56" unicode="&#x1e56;" horiz-adv-x="1277" 
d="M426 0h-291v1366h639q108 0 196.5 -35t145 -95t87 -139.5t30.5 -170.5q0 -90 -30.5 -169.5t-87.5 -140t-145 -96t-196 -35.5h-348v-485zM735 741q88 0 144.5 51t56.5 134q0 85 -56.5 134.5t-144.5 49.5h-309v-369h309zM641 1454q-59 0 -99 40t-40 99q0 57 40.5 98.5
t98.5 41.5q56 0 96.5 -41.5t40.5 -98.5q0 -58 -40.5 -98.5t-96.5 -40.5z" />
    <glyph glyph-name="uni1E57" unicode="&#x1e57;" horiz-adv-x="1193" 
d="M694 -25q-186 0 -305 152v-504h-260v1366h260v-125q119 150 305 150q195 0 317 -138t122 -380t-122 -381.5t-317 -139.5zM612 207q112 0 181 80t69 209q0 128 -69 207t-181 79q-63 0 -127 -32.5t-96 -79.5v-351q33 -47 97 -79.5t126 -32.5zM612 1112q-58 0 -98.5 40
t-40.5 99q0 57 40.5 98.5t98.5 41.5q56 0 97 -41.5t41 -98.5q0 -58 -41 -98.5t-97 -40.5z" />
    <glyph glyph-name="uni1E60" unicode="&#x1e60;" horiz-adv-x="1228" 
d="M621 -25q-363 0 -578 218l158 221q79 -82 190 -133.5t244 -51.5q114 0 175.5 44.5t61.5 107.5q0 38 -27 66.5t-72.5 46.5t-104.5 33t-124 30.5t-130 35t-124 51t-104.5 73.5t-72.5 107t-27 147q0 176 141.5 295.5t376.5 119.5q328 0 533 -190l-162 -213q-81 74 -185 112
t-212 38q-92 0 -143.5 -37.5t-51.5 -100.5q0 -38 33.5 -66.5t89 -44t126 -34t143.5 -36t143.5 -50t126 -75t89 -113.5t33.5 -162q0 -196 -139.5 -317.5t-406.5 -121.5zM616 1454q-58 0 -98.5 40t-40.5 99q0 57 40.5 98.5t98.5 41.5q56 0 97 -41.5t41 -98.5q0 -58 -41 -98.5
t-97 -40.5z" />
    <glyph glyph-name="uni1E61" unicode="&#x1e61;" horiz-adv-x="976" 
d="M485 -25q-129 0 -246.5 41t-195.5 113l113 182q57 -54 155.5 -94.5t186.5 -40.5q82 0 124 29.5t42 77.5q0 33 -32.5 54t-84.5 33t-114.5 23.5t-125 32t-114.5 51.5t-84.5 88.5t-32.5 136.5q0 131 109 221.5t296 90.5q230 0 400 -135l-105 -179q-46 49 -126 82t-167 33
q-69 0 -112 -28t-43 -70q0 -29 32.5 -48t84 -31t113.5 -23.5t124.5 -33.5t114 -54.5t84 -92.5t32.5 -141q0 -139 -114 -228.5t-314 -89.5zM489 1112q-59 0 -99 40t-40 99q0 57 40.5 98.5t98.5 41.5q56 0 97 -41.5t41 -98.5q0 -58 -41 -98.5t-97 -40.5z" />
    <glyph glyph-name="uni1E6A" unicode="&#x1e6a;" horiz-adv-x="1191" 
d="M743 0h-292v1110h-400v256h1090v-256h-398v-1110zM598 1454q-58 0 -98.5 40t-40.5 99q0 57 40.5 98.5t98.5 41.5q56 0 96.5 -41.5t40.5 -98.5q0 -58 -40.5 -98.5t-96.5 -40.5z" />
    <glyph glyph-name="uni1E6B" unicode="&#x1e6b;" horiz-adv-x="692" 
d="M461 -25q-137 0 -209 69.5t-72 201.5v516h-164v227h164v271h262v-271h201v-227h-201v-447q0 -47 24 -77.5t66 -30.5q28 0 54 9t37 20l55 -197q-71 -64 -217 -64zM322 1454q-59 0 -99.5 40.5t-40.5 98.5q0 57 41 98.5t99 41.5q56 0 96.5 -41.5t40.5 -98.5
q0 -58 -40.5 -98.5t-96.5 -40.5z" />
    <glyph glyph-name="Wgrave" unicode="&#x1e80;" horiz-adv-x="1880" 
d="M1489 0h-309l-240 938l-238 -938h-309l-391 1366h326l239 -987l260 987h228l258 -987l237 987h328zM1071 1481h-182l-332 295h238z" />
    <glyph glyph-name="wgrave" unicode="&#x1e81;" horiz-adv-x="1574" 
d="M1274 0h-277l-209 674l-208 -674h-279l-301 989h270l185 -665l217 665h231l217 -665l185 665h270zM918 1139h-183l-332 295h238z" />
    <glyph glyph-name="Wacute" unicode="&#x1e82;" horiz-adv-x="1880" 
d="M1325 1776l-332 -295h-182l274 295h240zM1489 0h-309l-240 938l-238 -938h-309l-391 1366h326l239 -987l260 987h228l258 -987l237 987h328z" />
    <glyph glyph-name="wacute" unicode="&#x1e83;" horiz-adv-x="1574" 
d="M1171 1434l-331 -295h-183l275 295h239zM1274 0h-277l-209 674l-208 -674h-279l-301 989h270l185 -665l217 665h231l217 -665l185 665h270z" />
    <glyph glyph-name="Wdieresis" unicode="&#x1e84;" horiz-adv-x="1880" 
d="M1294 1593q0 -58 -41 -98.5t-98 -40.5t-98 40.5t-41 98.5q0 57 41 97.5t98 40.5t98 -40.5t41 -97.5zM860 1593q0 -58 -40 -98.5t-97 -40.5q-59 0 -99 40t-40 99q0 57 40.5 97.5t98.5 40.5q57 0 97 -40.5t40 -97.5zM1489 0h-309l-240 938l-238 -938h-309l-391 1366h326
l239 -987l260 987h228l258 -987l237 987h328z" />
    <glyph glyph-name="wdieresis" unicode="&#x1e85;" horiz-adv-x="1574" 
d="M1143 1251q0 -58 -41 -98.5t-98 -40.5t-98.5 40.5t-41.5 98.5q0 57 41.5 97.5t98.5 40.5t98 -40.5t41 -97.5zM709 1251q0 -58 -40.5 -98.5t-97.5 -40.5q-59 0 -99 40t-40 99q0 57 40.5 97.5t98.5 40.5q57 0 97.5 -40.5t40.5 -97.5zM1274 0h-277l-209 674l-208 -674h-279
l-301 989h270l185 -665l217 665h231l217 -665l185 665h270z" />
    <glyph glyph-name="uni1EA0" unicode="&#x1ea0;" horiz-adv-x="1400" 
d="M1409 0h-332l-84 231h-585l-86 -231h-332l528 1366h365zM913 487l-213 588l-213 -588h426zM702 -401q-58 0 -98.5 40.5t-40.5 98.5q0 57 40.5 98t98.5 41q56 0 97 -41t41 -98q0 -58 -41 -98.5t-97 -40.5z" />
    <glyph glyph-name="uni1EA1" unicode="&#x1ea1;" horiz-adv-x="1112" 
d="M983 0h-260v102q-51 -60 -133.5 -93.5t-179.5 -33.5q-61 0 -120.5 21t-110.5 60t-82 103.5t-31 143.5q0 67 20.5 122t55 91t79.5 60.5t92.5 35.5t96.5 11q99 0 181.5 -31.5t131.5 -89.5v133q0 75 -59.5 120.5t-157.5 45.5q-163 0 -289 -117l-98 174q178 156 432 156
q89 0 163 -19t136.5 -61t97.5 -117t35 -178v-639zM514 152q65 0 121.5 22t87.5 64v122q-31 42 -87.5 64t-121.5 22q-80 0 -133 -39.5t-53 -109.5q0 -67 53.5 -106t132.5 -39zM557 -401q-59 0 -99 40.5t-40 98.5q0 57 40.5 98t98.5 41q56 0 96.5 -41t40.5 -98
q0 -58 -40.5 -98.5t-96.5 -40.5z" />
    <glyph glyph-name="uni1EA2" unicode="&#x1ea2;" horiz-adv-x="1400" 
d="M1409 0h-332l-84 231h-585l-86 -231h-332l528 1366h365zM913 487l-213 588l-213 -588h426zM629 1534l-92 29q19 56 61.5 86t101.5 30q70 0 116 -36.5t46 -110.5q0 -54 -31 -105h-112q41 44 41 99q0 33 -17 49t-43 16q-51 0 -71 -57z" />
    <glyph glyph-name="uni1EA3" unicode="&#x1ea3;" horiz-adv-x="1112" 
d="M983 0h-260v102q-51 -60 -133.5 -93.5t-179.5 -33.5q-61 0 -120.5 21t-110.5 60t-82 103.5t-31 143.5q0 67 20.5 122t55 91t79.5 60.5t92.5 35.5t96.5 11q99 0 181.5 -31.5t131.5 -89.5v133q0 75 -59.5 120.5t-157.5 45.5q-163 0 -289 -117l-98 174q178 156 432 156
q89 0 163 -19t136.5 -61t97.5 -117t35 -178v-639zM514 152q65 0 121.5 22t87.5 64v122q-31 42 -87.5 64t-121.5 22q-80 0 -133 -39.5t-53 -109.5q0 -67 53.5 -106t132.5 -39zM483 1186l-92 28q19 56 62 86.5t102 30.5q70 0 116 -36.5t46 -110.5q0 -54 -31 -105h-113
q41 44 41 99q0 33 -16.5 49t-42.5 16q-52 0 -72 -57z" />
    <glyph glyph-name="uni1EA4" unicode="&#x1ea4;" horiz-adv-x="1400" 
d="M1010 1397h-160l-150 137l-145 -137h-160l189 221h233zM1409 0h-332l-84 231h-585l-86 -231h-332l528 1366h365zM913 487l-213 588l-213 -588h426zM1456 1729l-332 -222h-182l275 222h239z" />
    <glyph glyph-name="uni1EA5" unicode="&#x1ea5;" horiz-adv-x="1112" 
d="M983 0h-260v102q-51 -60 -133.5 -93.5t-179.5 -33.5q-61 0 -120.5 21t-110.5 60t-82 103.5t-31 143.5q0 67 20.5 122t55 91t79.5 60.5t92.5 35.5t96.5 11q99 0 181.5 -31.5t131.5 -89.5v133q0 75 -59.5 120.5t-157.5 45.5q-163 0 -289 -117l-98 174q178 156 432 156
q89 0 163 -19t136.5 -61t97.5 -117t35 -178v-639zM514 152q65 0 121.5 22t87.5 64v122q-31 42 -87.5 64t-121.5 22q-80 0 -133 -39.5t-53 -109.5q0 -67 53.5 -106t132.5 -39zM862 1139h-160l-149 182l-145 -182h-160l188 295h234zM1296 1577l-331 -295h-183l275 295h239z
" />
    <glyph glyph-name="uni1EA6" unicode="&#x1ea6;" horiz-adv-x="1400" 
d="M1010 1397h-160l-150 137l-145 -137h-160l189 221h233zM1409 0h-332l-84 231h-585l-86 -231h-332l528 1366h365zM913 487l-213 588l-213 -588h426zM467 1507h-182l-332 222h237z" />
    <glyph glyph-name="uni1EA7" unicode="&#x1ea7;" horiz-adv-x="1112" 
d="M983 0h-260v102q-51 -60 -133.5 -93.5t-179.5 -33.5q-61 0 -120.5 21t-110.5 60t-82 103.5t-31 143.5q0 67 20.5 122t55 91t79.5 60.5t92.5 35.5t96.5 11q99 0 181.5 -31.5t131.5 -89.5v133q0 75 -59.5 120.5t-157.5 45.5q-163 0 -289 -117l-98 174q178 156 432 156
q89 0 163 -19t136.5 -61t97.5 -117t35 -178v-639zM514 152q65 0 121.5 22t87.5 64v122q-31 42 -87.5 64t-121.5 22q-80 0 -133 -39.5t-53 -109.5q0 -67 53.5 -106t132.5 -39zM862 1139h-160l-149 182l-145 -182h-160l188 295h234zM322 1282h-183l-332 295h238z" />
    <glyph glyph-name="uni1EA8" unicode="&#x1ea8;" horiz-adv-x="1400" 
d="M1010 1397h-160l-150 137l-145 -137h-160l189 221h233zM1409 0h-332l-84 231h-585l-86 -231h-332l528 1366h365zM913 487l-213 588l-213 -588h426zM956 1604l-92 22q19 41 62 63.5t102 22.5q71 0 116.5 -27t45.5 -83q0 -39 -31 -78h-112q40 32 40 73q0 25 -17 37.5
t-42 12.5q-53 0 -72 -43z" />
    <glyph glyph-name="uni1EA9" unicode="&#x1ea9;" horiz-adv-x="1112" 
d="M983 0h-260v102q-51 -60 -133.5 -93.5t-179.5 -33.5q-61 0 -120.5 21t-110.5 60t-82 103.5t-31 143.5q0 67 20.5 122t55 91t79.5 60.5t92.5 35.5t96.5 11q99 0 181.5 -31.5t131.5 -89.5v133q0 75 -59.5 120.5t-157.5 45.5q-163 0 -289 -117l-98 174q178 156 432 156
q89 0 163 -19t136.5 -61t97.5 -117t35 -178v-639zM514 152q65 0 121.5 22t87.5 64v122q-31 42 -87.5 64t-121.5 22q-80 0 -133 -39.5t-53 -109.5q0 -67 53.5 -106t132.5 -39zM862 1139h-160l-149 182l-145 -182h-160l188 295h234zM696 1473l-92 28q19 56 62 86.5t102 30.5
q70 0 116 -37t46 -111q0 -53 -31 -104h-113q41 44 41 98q0 33 -17 49.5t-42 16.5q-52 0 -72 -57z" />
    <glyph glyph-name="uni1EAA" unicode="&#x1eaa;" horiz-adv-x="1400" 
d="M1010 1389h-160l-150 90l-145 -90h-160l189 147h233zM1409 0h-332l-84 231h-585l-86 -231h-332l528 1366h365zM913 487l-213 588l-213 -588h426zM815 1550q-60 0 -103 17.5t-74.5 35t-62.5 17.5q-32 0 -52.5 -16.5t-20.5 -47.5h-137q0 65 57.5 101.5t163.5 36.5
q58 0 100.5 -17.5t74 -35t62.5 -17.5q32 0 53 16.5t21 47.5h137q0 -66 -56 -102t-163 -36z" />
    <glyph glyph-name="uni1EAB" unicode="&#x1eab;" horiz-adv-x="1112" 
d="M983 0h-260v102q-51 -60 -133.5 -93.5t-179.5 -33.5q-61 0 -120.5 21t-110.5 60t-82 103.5t-31 143.5q0 67 20.5 122t55 91t79.5 60.5t92.5 35.5t96.5 11q99 0 181.5 -31.5t131.5 -89.5v133q0 75 -59.5 120.5t-157.5 45.5q-163 0 -289 -117l-98 174q178 156 432 156
q89 0 163 -19t136.5 -61t97.5 -117t35 -178v-639zM514 152q65 0 121.5 22t87.5 64v122q-31 42 -87.5 64t-121.5 22q-80 0 -133 -39.5t-53 -109.5q0 -67 53.5 -106t132.5 -39zM862 1071h-160l-149 182l-145 -182h-160l188 295h234zM672 1397q-39 0 -70.5 14.5t-52 35
t-38.5 40.5t-38 34.5t-41 14.5q-33 0 -53.5 -32t-20.5 -95h-137q0 131 57 202.5t164 71.5q46 0 83 -21.5t57.5 -47t46.5 -47t51 -21.5q33 0 53.5 31.5t20.5 93.5h137q0 -131 -56 -202.5t-163 -71.5z" />
    <glyph glyph-name="uni1EAC" unicode="&#x1eac;" horiz-adv-x="1400" 
d="M1409 0h-332l-84 231h-585l-86 -231h-332l528 1366h365zM913 487l-213 588l-213 -588h426zM1008 1481h-160l-150 182l-145 -182h-160l189 295h233zM702 -401q-58 0 -98.5 40.5t-40.5 98.5q0 57 40.5 98t98.5 41q56 0 97 -41t41 -98q0 -58 -41 -98.5t-97 -40.5z" />
    <glyph glyph-name="uni1EAD" unicode="&#x1ead;" horiz-adv-x="1112" 
d="M983 0h-260v102q-51 -60 -133.5 -93.5t-179.5 -33.5q-61 0 -120.5 21t-110.5 60t-82 103.5t-31 143.5q0 67 20.5 122t55 91t79.5 60.5t92.5 35.5t96.5 11q99 0 181.5 -31.5t131.5 -89.5v133q0 75 -59.5 120.5t-157.5 45.5q-163 0 -289 -117l-98 174q178 156 432 156
q89 0 163 -19t136.5 -61t97.5 -117t35 -178v-639zM514 152q65 0 121.5 22t87.5 64v122q-31 42 -87.5 64t-121.5 22q-80 0 -133 -39.5t-53 -109.5q0 -67 53.5 -106t132.5 -39zM862 1139h-160l-149 182l-145 -182h-160l188 295h234zM557 -401q-59 0 -99 40.5t-40 98.5
q0 57 40.5 98t98.5 41q56 0 96.5 -41t40.5 -98q0 -58 -40.5 -98.5t-96.5 -40.5z" />
    <glyph glyph-name="uni1EAE" unicode="&#x1eae;" horiz-adv-x="1400" 
d="M1409 0h-332l-84 231h-585l-86 -231h-332l528 1366h365zM913 487l-213 588l-213 -588h426zM1087 1702l-331 -172h-183l275 172h239zM1059 1524q-62 -58 -156 -90.5t-203 -32.5q-108 0 -202 32.5t-158 90.5l115 65q89 -86 245 -86q155 0 244 86z" />
    <glyph glyph-name="uni1EAF" unicode="&#x1eaf;" horiz-adv-x="1112" 
d="M983 0h-260v102q-51 -60 -133.5 -93.5t-179.5 -33.5q-61 0 -120.5 21t-110.5 60t-82 103.5t-31 143.5q0 67 20.5 122t55 91t79.5 60.5t92.5 35.5t96.5 11q99 0 181.5 -31.5t131.5 -89.5v133q0 75 -59.5 120.5t-157.5 45.5q-163 0 -289 -117l-98 174q178 156 432 156
q89 0 163 -19t136.5 -61t97.5 -117t35 -178v-639zM514 152q65 0 121.5 22t87.5 64v122q-31 42 -87.5 64t-121.5 22q-80 0 -133 -39.5t-53 -109.5q0 -67 53.5 -106t132.5 -39zM944 1593l-332 -295h-182l275 295h239zM911 1237q-62 -84 -155.5 -132t-202.5 -48
q-107 0 -201.5 48t-158.5 132l114 96q90 -127 246 -127q154 0 244 127z" />
    <glyph glyph-name="uni1EB0" unicode="&#x1eb0;" horiz-adv-x="1400" 
d="M1409 0h-332l-84 231h-585l-86 -231h-332l528 1366h365zM913 487l-213 588l-213 -588h426zM831 1530h-182l-332 172h238zM1059 1513q-62 -58 -156 -90t-203 -32q-108 0 -202 32.5t-158 89.5l115 66q89 -86 245 -86q155 0 244 86z" />
    <glyph glyph-name="uni1EB1" unicode="&#x1eb1;" horiz-adv-x="1112" 
d="M983 0h-260v102q-51 -60 -133.5 -93.5t-179.5 -33.5q-61 0 -120.5 21t-110.5 60t-82 103.5t-31 143.5q0 67 20.5 122t55 91t79.5 60.5t92.5 35.5t96.5 11q99 0 181.5 -31.5t131.5 -89.5v133q0 75 -59.5 120.5t-157.5 45.5q-163 0 -289 -117l-98 174q178 156 432 156
q89 0 163 -19t136.5 -61t97.5 -117t35 -178v-639zM514 152q65 0 121.5 22t87.5 64v122q-31 42 -87.5 64t-121.5 22q-80 0 -133 -39.5t-53 -109.5q0 -67 53.5 -106t132.5 -39zM676 1298h-182l-332 295h237zM911 1241q-62 -84 -155.5 -132t-202.5 -48q-107 0 -201.5 48
t-158.5 132l114 96q90 -127 246 -127q154 0 244 127z" />
    <glyph glyph-name="uni1EB2" unicode="&#x1eb2;" horiz-adv-x="1400" 
d="M1409 0h-332l-84 231h-585l-86 -231h-332l528 1366h365zM913 487l-213 588l-213 -588h426zM629 1595l-92 19q39 67 163 67q70 0 116 -21.5t46 -64.5q0 -33 -31 -61h-112q41 25 41 57q0 39 -60 39q-50 0 -71 -35zM1059 1516q-62 -58 -156 -90.5t-203 -32.5
q-108 0 -202 32.5t-158 90.5l115 65q89 -86 245 -86q155 0 244 86z" />
    <glyph glyph-name="uni1EB3" unicode="&#x1eb3;" horiz-adv-x="1112" 
d="M983 0h-260v102q-51 -60 -133.5 -93.5t-179.5 -33.5q-61 0 -120.5 21t-110.5 60t-82 103.5t-31 143.5q0 67 20.5 122t55 91t79.5 60.5t92.5 35.5t96.5 11q99 0 181.5 -31.5t131.5 -89.5v133q0 75 -59.5 120.5t-157.5 45.5q-163 0 -289 -117l-98 174q178 156 432 156
q89 0 163 -19t136.5 -61t97.5 -117t35 -178v-639zM514 152q65 0 121.5 22t87.5 64v122q-31 42 -87.5 64t-121.5 22q-80 0 -133 -39.5t-53 -109.5q0 -67 53.5 -106t132.5 -39zM483 1415l-92 29q19 56 62 86.5t102 30.5q70 0 116 -37t46 -111q0 -53 -31 -104h-113q41 44 41 98
q0 33 -17 49.5t-42 16.5q-52 0 -72 -58zM911 1241q-62 -84 -155.5 -132t-202.5 -48q-107 0 -201.5 48t-158.5 132l114 96q90 -127 246 -127q154 0 244 127z" />
    <glyph glyph-name="uni1EB4" unicode="&#x1eb4;" horiz-adv-x="1400" 
d="M1409 0h-332l-84 231h-585l-86 -231h-332l528 1366h365zM913 487l-213 588l-213 -588h426zM1061 1487q-63 -47 -157 -74t-202 -27q-107 0 -201.5 27t-158.5 74l115 53q90 -70 245 -70q151 0 244 70zM815 1550q-60 0 -103 17.5t-74.5 35t-62.5 17.5q-32 0 -52.5 -16.5
t-20.5 -47.5h-137q0 65 57.5 101.5t163.5 36.5q58 0 100.5 -17.5t74 -35t62.5 -17.5q32 0 53 16.5t21 47.5h137q0 -66 -56 -102t-163 -36z" />
    <glyph glyph-name="uni1EB5" unicode="&#x1eb5;" horiz-adv-x="1112" 
d="M983 0h-260v102q-51 -60 -133.5 -93.5t-179.5 -33.5q-61 0 -120.5 21t-110.5 60t-82 103.5t-31 143.5q0 67 20.5 122t55 91t79.5 60.5t92.5 35.5t96.5 11q99 0 181.5 -31.5t131.5 -89.5v133q0 75 -59.5 120.5t-157.5 45.5q-163 0 -289 -117l-98 174q178 156 432 156
q89 0 163 -19t136.5 -61t97.5 -117t35 -178v-639zM514 152q65 0 121.5 22t87.5 64v122q-31 42 -87.5 64t-121.5 22q-80 0 -133 -39.5t-53 -109.5q0 -67 53.5 -106t132.5 -39zM911 1241q-62 -84 -155.5 -132t-202.5 -48q-107 0 -201.5 48t-158.5 132l114 96q90 -127 246 -127
q154 0 244 127zM666 1350q-39 0 -70.5 14.5t-52 35t-38.5 40.5t-38 34.5t-41 14.5q-33 0 -53.5 -32t-20.5 -95h-137q0 131 57 202.5t164 71.5q46 0 83 -21.5t57.5 -47t46.5 -47t51 -21.5q33 0 53.5 31.5t20.5 93.5h137q0 -131 -56 -202.5t-163 -71.5z" />
    <glyph glyph-name="uni1EB6" unicode="&#x1eb6;" horiz-adv-x="1400" 
d="M1409 0h-332l-84 231h-585l-86 -231h-332l528 1366h365zM913 487l-213 588l-213 -588h426zM702 -401q-58 0 -98.5 40.5t-40.5 98.5q0 57 40.5 98t98.5 41q56 0 97 -41t41 -98q0 -58 -41 -98.5t-97 -40.5zM1059 1610q-62 -84 -156 -132t-203 -48q-107 0 -201.5 48
t-158.5 132l115 96q90 -127 245 -127q154 0 244 127z" />
    <glyph glyph-name="uni1EB7" unicode="&#x1eb7;" horiz-adv-x="1112" 
d="M983 0h-260v102q-51 -60 -133.5 -93.5t-179.5 -33.5q-61 0 -120.5 21t-110.5 60t-82 103.5t-31 143.5q0 67 20.5 122t55 91t79.5 60.5t92.5 35.5t96.5 11q99 0 181.5 -31.5t131.5 -89.5v133q0 75 -59.5 120.5t-157.5 45.5q-163 0 -289 -117l-98 174q178 156 432 156
q89 0 163 -19t136.5 -61t97.5 -117t35 -178v-639zM514 152q65 0 121.5 22t87.5 64v122q-31 42 -87.5 64t-121.5 22q-80 0 -133 -39.5t-53 -109.5q0 -67 53.5 -106t132.5 -39zM557 -401q-59 0 -99 40.5t-40 98.5q0 57 40.5 98t98.5 41q56 0 96.5 -41t40.5 -98
q0 -58 -40.5 -98.5t-96.5 -40.5zM909 1268q-63 -85 -156 -133t-202 -48q-107 0 -202 48.5t-159 132.5l115 96q90 -127 246 -127q154 0 244 127z" />
    <glyph glyph-name="uni1EB8" unicode="&#x1eb8;" horiz-adv-x="1193" 
d="M1102 0h-967v1366h967v-256h-676v-289h661v-256h-661v-309h676v-256zM621 -401q-59 0 -99.5 40.5t-40.5 98.5q0 57 41 98t99 41q56 0 96.5 -41t40.5 -98q0 -58 -40.5 -98.5t-96.5 -40.5z" />
    <glyph glyph-name="uni1EB9" unicode="&#x1eb9;" horiz-adv-x="1132" 
d="M594 -25q-229 0 -378.5 143.5t-149.5 377.5q0 143 64.5 261t182.5 187.5t265 69.5q221 0 358 -151t137 -394v-57h-735q13 -99 88.5 -164.5t196.5 -65.5q66 0 142 27.5t122 71.5l114 -168q-72 -66 -180.5 -102t-226.5 -36zM821 588q-2 38 -16.5 74.5t-42 70t-75.5 54
t-109 20.5q-58 0 -104.5 -20t-74.5 -53t-44 -70t-21 -76h487zM584 -401q-59 0 -99.5 40.5t-40.5 98.5q0 57 41 98t99 41q56 0 96.5 -41t40.5 -98q0 -58 -40.5 -98.5t-96.5 -40.5z" />
    <glyph glyph-name="uni1EBA" unicode="&#x1eba;" horiz-adv-x="1193" 
d="M1102 0h-967v1366h967v-256h-676v-289h661v-256h-661v-309h676v-256zM541 1534l-92 29q19 56 61.5 86t101.5 30q70 0 116 -36.5t46 -110.5q0 -54 -31 -105h-112q41 44 41 99q0 33 -17 49t-43 16q-51 0 -71 -57z" />
    <glyph glyph-name="uni1EBB" unicode="&#x1ebb;" horiz-adv-x="1132" 
d="M594 -25q-229 0 -378.5 143.5t-149.5 377.5q0 143 64.5 261t182.5 187.5t265 69.5q221 0 358 -151t137 -394v-57h-735q13 -99 88.5 -164.5t196.5 -65.5q66 0 142 27.5t122 71.5l114 -168q-72 -66 -180.5 -102t-226.5 -36zM821 588q-2 38 -16.5 74.5t-42 70t-75.5 54
t-109 20.5q-58 0 -104.5 -20t-74.5 -53t-44 -70t-21 -76h487zM502 1186l-92 28q19 57 61.5 87t101.5 30q70 0 116 -36.5t46 -110.5q0 -56 -30 -105h-113q41 44 41 99q0 33 -17 49t-43 16q-51 0 -71 -57z" />
    <glyph glyph-name="uni1EBC" unicode="&#x1ebc;" horiz-adv-x="1193" 
d="M1102 0h-967v1366h967v-256h-676v-289h661v-256h-661v-309h676v-256zM743 1477q-39 0 -70.5 14.5t-52 35t-38 40.5t-37.5 34.5t-41 14.5q-33 0 -53.5 -32t-20.5 -95h-137q0 131 57 202.5t164 71.5q46 0 83 -21.5t57.5 -47t46.5 -47t51 -21.5q33 0 53 31.5t20 93.5h138
q0 -131 -56.5 -202.5t-163.5 -71.5z" />
    <glyph glyph-name="uni1EBD" unicode="&#x1ebd;" horiz-adv-x="1132" 
d="M594 -25q-229 0 -378.5 143.5t-149.5 377.5q0 143 64.5 261t182.5 187.5t265 69.5q221 0 358 -151t137 -394v-57h-735q13 -99 88.5 -164.5t196.5 -65.5q66 0 142 27.5t122 71.5l114 -168q-72 -66 -180.5 -102t-226.5 -36zM821 588q-2 38 -16.5 74.5t-42 70t-75.5 54
t-109 20.5q-58 0 -104.5 -20t-74.5 -53t-44 -70t-21 -76h487zM688 1135q-39 0 -70.5 14.5t-52 35t-38 40.5t-37.5 34.5t-41 14.5q-33 0 -53.5 -32t-20.5 -95h-137q0 131 57 202.5t164 71.5q46 0 83 -21.5t57 -47t46 -47t51 -21.5q33 0 53.5 31.5t20.5 93.5h137
q0 -131 -56 -202.5t-163 -71.5z" />
    <glyph glyph-name="uni1EBE" unicode="&#x1ebe;" horiz-adv-x="1193" 
d="M936 1397h-160l-149 137l-146 -137h-159l188 221h233zM1382 1729l-331 -222h-183l275 222h239zM1102 0h-967v1366h967v-256h-676v-289h661v-256h-661v-309h676v-256z" />
    <glyph glyph-name="uni1EBF" unicode="&#x1ebf;" horiz-adv-x="1132" 
d="M885 1139h-160l-150 182l-145 -182h-160l189 295h233zM1315 1577l-332 -295h-182l274 295h240zM594 -25q-229 0 -378.5 143.5t-149.5 377.5q0 143 64.5 261t182.5 187.5t265 69.5q221 0 358 -151t137 -394v-57h-735q13 -99 88.5 -164.5t196.5 -65.5q66 0 142 27.5
t122 71.5l114 -168q-72 -66 -180.5 -102t-226.5 -36zM821 588q-2 38 -16.5 74.5t-42 70t-75.5 54t-109 20.5q-58 0 -104.5 -20t-74.5 -53t-44 -70t-21 -76h487z" />
    <glyph glyph-name="uni1EC0" unicode="&#x1ec0;" horiz-adv-x="1193" 
d="M938 1397h-160l-149 137l-146 -137h-159l188 221h233zM1102 0h-967v1366h967v-256h-676v-289h661v-256h-661v-309h676v-256zM395 1507h-182l-332 222h238z" />
    <glyph glyph-name="uni1EC1" unicode="&#x1ec1;" horiz-adv-x="1132" 
d="M885 1139h-160l-150 182l-145 -182h-160l189 295h233zM594 -25q-229 0 -378.5 143.5t-149.5 377.5q0 143 64.5 261t182.5 187.5t265 69.5q221 0 358 -151t137 -394v-57h-735q13 -99 88.5 -164.5t196.5 -65.5q66 0 142 27.5t122 71.5l114 -168q-72 -66 -180.5 -102
t-226.5 -36zM821 588q-2 38 -16.5 74.5t-42 70t-75.5 54t-109 20.5q-58 0 -104.5 -20t-74.5 -53t-44 -70t-21 -76h487zM344 1282h-182l-332 295h238z" />
    <glyph glyph-name="uni1EC2" unicode="&#x1ec2;" horiz-adv-x="1193" 
d="M936 1397h-160l-149 137l-146 -137h-159l188 221h233zM1102 0h-967v1366h967v-256h-676v-289h661v-256h-661v-309h676v-256zM881 1604l-93 22q19 41 62 63.5t102 22.5q71 0 116.5 -27t45.5 -83q0 -39 -31 -78h-112q41 33 41 73q0 25 -17.5 37.5t-42.5 12.5q-52 0 -71 -43
z" />
    <glyph glyph-name="uni1EC3" unicode="&#x1ec3;" horiz-adv-x="1132" 
d="M885 1139h-160l-150 182l-145 -182h-160l189 295h233zM594 -25q-229 0 -378.5 143.5t-149.5 377.5q0 143 64.5 261t182.5 187.5t265 69.5q221 0 358 -151t137 -394v-57h-735q13 -99 88.5 -164.5t196.5 -65.5q66 0 142 27.5t122 71.5l114 -168q-72 -66 -180.5 -102
t-226.5 -36zM821 588q-2 38 -16.5 74.5t-42 70t-75.5 54t-109 20.5q-58 0 -104.5 -20t-74.5 -53t-44 -70t-21 -76h487zM719 1473l-92 28q19 56 62 86.5t102 30.5q70 0 115.5 -37t45.5 -111q0 -54 -30 -104h-113q41 44 41 98q0 33 -17 49.5t-42 16.5q-52 0 -72 -57z" />
    <glyph glyph-name="uni1EC4" unicode="&#x1ec4;" horiz-adv-x="1193" 
d="M936 1389h-160l-149 90l-146 -90h-159l188 147h233zM1102 0h-967v1366h967v-256h-676v-289h661v-256h-661v-309h676v-256zM739 1550q-47 0 -85 11t-58 24t-45.5 24t-50.5 11q-32 0 -53 -16.5t-21 -47.5h-137q0 65 57.5 101.5t163.5 36.5q46 0 83 -11t57.5 -24t46.5 -24
t51 -11q32 0 52.5 16.5t20.5 47.5h137q0 -66 -56 -102t-163 -36z" />
    <glyph glyph-name="uni1EC5" unicode="&#x1ec5;" horiz-adv-x="1132" 
d="M885 1071h-160l-150 182l-145 -182h-160l189 295h233zM594 -25q-229 0 -378.5 143.5t-149.5 377.5q0 143 64.5 261t182.5 187.5t265 69.5q221 0 358 -151t137 -394v-57h-735q13 -99 88.5 -164.5t196.5 -65.5q66 0 142 27.5t122 71.5l114 -168q-72 -66 -180.5 -102
t-226.5 -36zM821 588q-2 38 -16.5 74.5t-42 70t-75.5 54t-109 20.5q-58 0 -104.5 -20t-74.5 -53t-44 -70t-21 -76h487zM694 1397q-39 0 -70.5 14.5t-52 35t-38 40.5t-37.5 34.5t-41 14.5q-33 0 -53.5 -32t-20.5 -95h-137q0 131 57 202.5t164 71.5q46 0 83 -21.5t57 -47
t46 -47t51 -21.5q33 0 53.5 31.5t20.5 93.5h137q0 -131 -56 -202.5t-163 -71.5z" />
    <glyph glyph-name="uni1EC6" unicode="&#x1ec6;" horiz-adv-x="1193" 
d="M926 1481h-160l-150 182l-145 -182h-160l189 295h233zM1102 0h-967v1366h967v-256h-676v-289h661v-256h-661v-309h676v-256zM621 -401q-59 0 -99.5 40.5t-40.5 98.5q0 57 41 98t99 41q56 0 96.5 -41t40.5 -98q0 -58 -40.5 -98.5t-96.5 -40.5z" />
    <glyph glyph-name="uni1EC7" unicode="&#x1ec7;" horiz-adv-x="1132" 
d="M889 1139h-160l-149 182l-146 -182h-160l189 295h233zM594 -25q-229 0 -378.5 143.5t-149.5 377.5q0 143 64.5 261t182.5 187.5t265 69.5q221 0 358 -151t137 -394v-57h-735q13 -99 88.5 -164.5t196.5 -65.5q66 0 142 27.5t122 71.5l114 -168q-72 -66 -180.5 -102
t-226.5 -36zM821 588q-2 38 -16.5 74.5t-42 70t-75.5 54t-109 20.5q-58 0 -104.5 -20t-74.5 -53t-44 -70t-21 -76h487zM584 -401q-59 0 -99.5 40.5t-40.5 98.5q0 57 41 98t99 41q56 0 96.5 -41t40.5 -98q0 -58 -40.5 -98.5t-96.5 -40.5z" />
    <glyph glyph-name="uni1EC8" unicode="&#x1ec8;" horiz-adv-x="561" 
d="M426 0h-291v1366h291v-1366zM211 1534l-92 29q19 56 62 86t102 30q70 0 115.5 -36.5t45.5 -110.5q0 -56 -30 -105h-113q41 44 41 99q0 33 -16.5 49t-42.5 16q-52 0 -72 -57z" />
    <glyph glyph-name="uni1EC9" unicode="&#x1ec9;" horiz-adv-x="518" 
d="M389 0h-260v989h260v-989zM188 1186l-92 28q19 56 62 86.5t102 30.5q70 0 116 -36.5t46 -110.5q0 -54 -31 -105h-112q40 43 40 99q0 33 -16.5 49t-42.5 16q-52 0 -72 -57z" />
    <glyph glyph-name="uni1ECA" unicode="&#x1eca;" horiz-adv-x="561" 
d="M426 0h-291v1366h291v-1366zM287 -401q-59 0 -99.5 40.5t-40.5 98.5q0 57 41 98t99 41q56 0 96.5 -41t40.5 -98q0 -58 -40.5 -98.5t-96.5 -40.5z" />
    <glyph glyph-name="uni1ECB" unicode="&#x1ecb;" horiz-adv-x="518" 
d="M258 1096q-63 0 -109.5 45.5t-46.5 109.5t46 109t110 45q65 0 110.5 -45t45.5 -109t-45.5 -109.5t-110.5 -45.5zM389 0h-260v989h260v-989zM262 -401q-58 0 -98.5 40.5t-40.5 98.5q0 57 40.5 98t98.5 41q56 0 96.5 -41t40.5 -98q0 -58 -40.5 -98.5t-96.5 -40.5z" />
    <glyph glyph-name="uni1ECC" unicode="&#x1ecc;" horiz-adv-x="1566" 
d="M782 -25q-152 0 -284.5 53t-226.5 145.5t-147.5 224.5t-53.5 284t53.5 284t147.5 224.5t226.5 145.5t284.5 53q205 0 368 -90t255 -252t92 -365t-92 -365t-255 -252t-368 -90zM782 233q186 0 301 127.5t115 321.5q0 195 -115 321.5t-301 126.5t-299.5 -126.5
t-113.5 -321.5q0 -194 113.5 -321.5t299.5 -127.5zM791 -401q-59 0 -99.5 40.5t-40.5 98.5q0 57 41 98t99 41q56 0 96.5 -41t40.5 -98q0 -58 -40.5 -98.5t-96.5 -40.5z" />
    <glyph glyph-name="uni1ECD" unicode="&#x1ecd;" horiz-adv-x="1175" 
d="M588 -25q-158 0 -278.5 71.5t-182 189t-61.5 260.5q0 142 61.5 258.5t182 188t278.5 71.5q159 0 280 -71.5t182.5 -188t61.5 -258.5q0 -106 -36.5 -200.5t-102 -166t-165.5 -113t-220 -41.5zM588 207q117 0 185.5 83.5t68.5 205.5q0 121 -68.5 203.5t-185.5 82.5
t-184.5 -82.5t-67.5 -203.5q0 -122 67.5 -205.5t184.5 -83.5zM590 -401q-58 0 -98.5 40.5t-40.5 98.5q0 57 40.5 98t98.5 41q56 0 96.5 -41t40.5 -98q0 -58 -40.5 -98.5t-96.5 -40.5z" />
    <glyph glyph-name="uni1ECE" unicode="&#x1ece;" horiz-adv-x="1566" 
d="M782 -25q-152 0 -284.5 53t-226.5 145.5t-147.5 224.5t-53.5 284t53.5 284t147.5 224.5t226.5 145.5t284.5 53q205 0 368 -90t255 -252t92 -365t-92 -365t-255 -252t-368 -90zM782 233q186 0 301 127.5t115 321.5q0 195 -115 321.5t-301 126.5t-299.5 -126.5
t-113.5 -321.5q0 -194 113.5 -321.5t299.5 -127.5zM709 1534l-93 29q19 56 62 86t102 30q70 0 116 -36.5t46 -110.5q0 -54 -31 -105h-112q41 44 41 99q0 33 -17 49t-43 16q-51 0 -71 -57z" />
    <glyph glyph-name="uni1ECF" unicode="&#x1ecf;" horiz-adv-x="1175" 
d="M588 -25q-158 0 -278.5 71.5t-182 189t-61.5 260.5q0 142 61.5 258.5t182 188t278.5 71.5q159 0 280 -71.5t182.5 -188t61.5 -258.5q0 -106 -36.5 -200.5t-102 -166t-165.5 -113t-220 -41.5zM588 207q117 0 185.5 83.5t68.5 205.5q0 121 -68.5 203.5t-185.5 82.5
t-184.5 -82.5t-67.5 -203.5q0 -122 67.5 -205.5t184.5 -83.5zM518 1186l-92 28q19 56 62 86.5t102 30.5q70 0 116 -36.5t46 -110.5q0 -54 -31 -105h-113q41 44 41 99q0 33 -16.5 49t-42.5 16q-52 0 -72 -57z" />
    <glyph glyph-name="uni1ED0" unicode="&#x1ed0;" horiz-adv-x="1566" 
d="M1083 1397h-159l-150 137l-145 -137h-160l188 221h234zM1528 1729l-332 -222h-182l274 222h240zM782 -25q-152 0 -284.5 53t-226.5 145.5t-147.5 224.5t-53.5 284t53.5 284t147.5 224.5t226.5 145.5t284.5 53q205 0 368 -90t255 -252t92 -365t-92 -365t-255 -252
t-368 -90zM782 233q186 0 301 127.5t115 321.5q0 195 -115 321.5t-301 126.5t-299.5 -126.5t-113.5 -321.5q0 -194 113.5 -321.5t299.5 -127.5z" />
    <glyph glyph-name="uni1ED1" unicode="&#x1ed1;" horiz-adv-x="1175" 
d="M895 1139h-160l-149 182l-146 -182h-159l188 295h233zM1327 1577l-332 -295h-182l274 295h240zM588 -25q-158 0 -278.5 71.5t-182 189t-61.5 260.5q0 142 61.5 258.5t182 188t278.5 71.5q159 0 280 -71.5t182.5 -188t61.5 -258.5q0 -106 -36.5 -200.5t-102 -166
t-165.5 -113t-220 -41.5zM588 207q117 0 185.5 83.5t68.5 205.5q0 121 -68.5 203.5t-185.5 82.5t-184.5 -82.5t-67.5 -203.5q0 -122 67.5 -205.5t184.5 -83.5z" />
    <glyph glyph-name="uni1ED2" unicode="&#x1ed2;" horiz-adv-x="1566" 
d="M1081 1397h-159l-150 137l-145 -137h-160l188 221h234zM782 -25q-152 0 -284.5 53t-226.5 145.5t-147.5 224.5t-53.5 284t53.5 284t147.5 224.5t226.5 145.5t284.5 53q205 0 368 -90t255 -252t92 -365t-92 -365t-255 -252t-368 -90zM782 233q186 0 301 127.5t115 321.5
q0 195 -115 321.5t-301 126.5t-299.5 -126.5t-113.5 -321.5q0 -194 113.5 -321.5t299.5 -127.5zM537 1507h-183l-331 222h237z" />
    <glyph glyph-name="uni1ED3" unicode="&#x1ed3;" horiz-adv-x="1175" 
d="M895 1139h-160l-149 182l-146 -182h-159l188 295h233zM588 -25q-158 0 -278.5 71.5t-182 189t-61.5 260.5q0 142 61.5 258.5t182 188t278.5 71.5q159 0 280 -71.5t182.5 -188t61.5 -258.5q0 -106 -36.5 -200.5t-102 -166t-165.5 -113t-220 -41.5zM588 207
q117 0 185.5 83.5t68.5 205.5q0 121 -68.5 203.5t-185.5 82.5t-184.5 -82.5t-67.5 -203.5q0 -122 67.5 -205.5t184.5 -83.5zM356 1282h-182l-332 295h238z" />
    <glyph glyph-name="uni1ED4" unicode="&#x1ed4;" horiz-adv-x="1566" 
d="M1081 1397h-159l-150 137l-145 -137h-160l188 221h234zM782 -25q-152 0 -284.5 53t-226.5 145.5t-147.5 224.5t-53.5 284t53.5 284t147.5 224.5t226.5 145.5t284.5 53q205 0 368 -90t255 -252t92 -365t-92 -365t-255 -252t-368 -90zM782 233q186 0 301 127.5t115 321.5
q0 195 -115 321.5t-301 126.5t-299.5 -126.5t-113.5 -321.5q0 -194 113.5 -321.5t299.5 -127.5zM1028 1604l-92 22q19 41 62 63.5t102 22.5q71 0 116.5 -27t45.5 -83q0 -39 -31 -78h-113q41 33 41 73q0 25 -17 37.5t-42 12.5q-53 0 -72 -43z" />
    <glyph glyph-name="uni1ED5" unicode="&#x1ed5;" horiz-adv-x="1175" 
d="M895 1139h-160l-149 182l-146 -182h-159l188 295h233zM588 -25q-158 0 -278.5 71.5t-182 189t-61.5 260.5q0 142 61.5 258.5t182 188t278.5 71.5q159 0 280 -71.5t182.5 -188t61.5 -258.5q0 -106 -36.5 -200.5t-102 -166t-165.5 -113t-220 -41.5zM588 207
q117 0 185.5 83.5t68.5 205.5q0 121 -68.5 203.5t-185.5 82.5t-184.5 -82.5t-67.5 -203.5q0 -122 67.5 -205.5t184.5 -83.5zM729 1473l-92 28q19 56 62 86.5t102 30.5q70 0 116 -37t46 -111q0 -53 -31 -104h-113q41 44 41 98q0 33 -17 49.5t-42 16.5q-52 0 -72 -57z" />
    <glyph glyph-name="uni1ED6" unicode="&#x1ed6;" horiz-adv-x="1566" 
d="M1087 1389h-159l-150 90l-145 -90h-160l189 147h233zM782 -25q-152 0 -284.5 53t-226.5 145.5t-147.5 224.5t-53.5 284t53.5 284t147.5 224.5t226.5 145.5t284.5 53q205 0 368 -90t255 -252t92 -365t-92 -365t-255 -252t-368 -90zM782 233q186 0 301 127.5t115 321.5
q0 195 -115 321.5t-301 126.5t-299.5 -126.5t-113.5 -321.5q0 -194 113.5 -321.5t299.5 -127.5zM893 1550q-60 0 -103 17.5t-74.5 35t-62.5 17.5q-32 0 -52.5 -16.5t-20.5 -47.5h-138q0 65 58 101.5t164 36.5q58 0 100.5 -17.5t74 -35t62.5 -17.5q32 0 53 16.5t21 47.5h137
q0 -66 -56 -102t-163 -36z" />
    <glyph glyph-name="uni1ED7" unicode="&#x1ed7;" horiz-adv-x="1175" 
d="M895 1071h-160l-149 182l-146 -182h-159l188 295h233zM588 -25q-158 0 -278.5 71.5t-182 189t-61.5 260.5q0 142 61.5 258.5t182 188t278.5 71.5q159 0 280 -71.5t182.5 -188t61.5 -258.5q0 -106 -36.5 -200.5t-102 -166t-165.5 -113t-220 -41.5zM588 207
q117 0 185.5 83.5t68.5 205.5q0 121 -68.5 203.5t-185.5 82.5t-184.5 -82.5t-67.5 -203.5q0 -122 67.5 -205.5t184.5 -83.5zM705 1397q-39 0 -70.5 14.5t-52 35t-38.5 40.5t-38 34.5t-41 14.5q-33 0 -53.5 -32t-20.5 -95h-137q0 131 57 202.5t164 71.5q46 0 83 -21.5
t57.5 -47t46.5 -47t51 -21.5q33 0 53 31.5t20 93.5h138q0 -131 -56 -202.5t-163 -71.5z" />
    <glyph glyph-name="uni1ED8" unicode="&#x1ed8;" horiz-adv-x="1566" 
d="M1096 1481h-160l-150 182l-145 -182h-160l189 295h233zM782 -25q-152 0 -284.5 53t-226.5 145.5t-147.5 224.5t-53.5 284t53.5 284t147.5 224.5t226.5 145.5t284.5 53q205 0 368 -90t255 -252t92 -365t-92 -365t-255 -252t-368 -90zM782 233q186 0 301 127.5t115 321.5
q0 195 -115 321.5t-301 126.5t-299.5 -126.5t-113.5 -321.5q0 -194 113.5 -321.5t299.5 -127.5zM791 -401q-59 0 -99.5 40.5t-40.5 98.5q0 57 41 98t99 41q56 0 96.5 -41t40.5 -98q0 -58 -40.5 -98.5t-96.5 -40.5z" />
    <glyph glyph-name="uni1ED9" unicode="&#x1ed9;" horiz-adv-x="1175" 
d="M895 1139h-160l-149 182l-146 -182h-159l188 295h233zM588 -25q-158 0 -278.5 71.5t-182 189t-61.5 260.5q0 142 61.5 258.5t182 188t278.5 71.5q159 0 280 -71.5t182.5 -188t61.5 -258.5q0 -106 -36.5 -200.5t-102 -166t-165.5 -113t-220 -41.5zM588 207
q117 0 185.5 83.5t68.5 205.5q0 121 -68.5 203.5t-185.5 82.5t-184.5 -82.5t-67.5 -203.5q0 -122 67.5 -205.5t184.5 -83.5zM590 -401q-58 0 -98.5 40.5t-40.5 98.5q0 57 40.5 98t98.5 41q56 0 96.5 -41t40.5 -98q0 -58 -40.5 -98.5t-96.5 -40.5z" />
    <glyph glyph-name="uni1EDA" unicode="&#x1eda;" horiz-adv-x="1566" 
d="M1167 1776l-331 -295h-183l275 295h239zM782 -25q-152 0 -284.5 53t-226.5 145.5t-147.5 224.5t-53.5 284t53.5 284t147.5 224.5t226.5 145.5t284.5 53q161 0 298 -58t235 -164q32 27 57.5 63.5t32.5 67.5q-8 -4 -29 -4q-42 0 -70 30t-28 75q0 47 33.5 80.5t79.5 33.5
q54 0 91.5 -40t37.5 -109q0 -80 -38.5 -150.5t-105.5 -121.5q121 -175 121 -410q0 -203 -92 -365t-255 -252t-368 -90zM782 233q186 0 301 127.5t115 321.5q0 195 -115 321.5t-301 126.5t-299.5 -126.5t-113.5 -321.5q0 -194 113.5 -321.5t299.5 -127.5z" />
    <glyph glyph-name="uni1EDB" unicode="&#x1edb;" horiz-adv-x="1175" 
d="M973 1434l-332 -295h-182l274 295h240zM1130 1090q0 -75 -35 -144t-96 -119q113 -137 113 -331q0 -106 -36.5 -200.5t-102 -166t-165.5 -113t-220 -41.5q-158 0 -278.5 71.5t-182 189t-61.5 260.5q0 142 61.5 258.5t182 188t278.5 71.5q201 0 342 -115q71 60 86 127
q-8 -4 -29 -4q-42 0 -70 29t-28 75t32.5 80.5t79.5 34.5q54 0 91.5 -41t37.5 -110zM588 207q117 0 185.5 83.5t68.5 205.5q0 121 -68.5 203.5t-185.5 82.5t-184.5 -82.5t-67.5 -203.5q0 -122 67.5 -205.5t184.5 -83.5z" />
    <glyph glyph-name="uni1EDC" unicode="&#x1edc;" horiz-adv-x="1566" 
d="M782 -25q-152 0 -284.5 53t-226.5 145.5t-147.5 224.5t-53.5 284t53.5 284t147.5 224.5t226.5 145.5t284.5 53q161 0 298 -58t235 -164q32 27 57.5 63.5t32.5 67.5q-8 -4 -29 -4q-42 0 -70 30t-28 75q0 47 33.5 80.5t79.5 33.5q54 0 91.5 -40t37.5 -109
q0 -80 -38.5 -150.5t-105.5 -121.5q121 -175 121 -410q0 -203 -92 -365t-255 -252t-368 -90zM782 233q186 0 301 127.5t115 321.5q0 195 -115 321.5t-301 126.5t-299.5 -126.5t-113.5 -321.5q0 -194 113.5 -321.5t299.5 -127.5zM915 1481h-182l-332 295h238z" />
    <glyph glyph-name="uni1EDD" unicode="&#x1edd;" horiz-adv-x="1175" 
d="M1130 1090q0 -75 -35 -144t-96 -119q113 -137 113 -331q0 -106 -36.5 -200.5t-102 -166t-165.5 -113t-220 -41.5q-158 0 -278.5 71.5t-182 189t-61.5 260.5q0 142 61.5 258.5t182 188t278.5 71.5q201 0 342 -115q71 60 86 127q-8 -4 -29 -4q-42 0 -70 29t-28 75
t32.5 80.5t79.5 34.5q54 0 91.5 -41t37.5 -110zM588 207q117 0 185.5 83.5t68.5 205.5q0 121 -68.5 203.5t-185.5 82.5t-184.5 -82.5t-67.5 -203.5q0 -122 67.5 -205.5t184.5 -83.5zM719 1139h-182l-332 295h237z" />
    <glyph glyph-name="uni1EDE" unicode="&#x1ede;" horiz-adv-x="1566" 
d="M782 -25q-152 0 -284.5 53t-226.5 145.5t-147.5 224.5t-53.5 284t53.5 284t147.5 224.5t226.5 145.5t284.5 53q161 0 298 -58t235 -164q32 27 57.5 63.5t32.5 67.5q-8 -4 -29 -4q-42 0 -70 30t-28 75q0 47 33.5 80.5t79.5 33.5q54 0 91.5 -40t37.5 -109
q0 -80 -38.5 -150.5t-105.5 -121.5q121 -175 121 -410q0 -203 -92 -365t-255 -252t-368 -90zM782 233q186 0 301 127.5t115 321.5q0 195 -115 321.5t-301 126.5t-299.5 -126.5t-113.5 -321.5q0 -194 113.5 -321.5t299.5 -127.5zM711 1534l-93 29q19 56 62 86t102 30
q70 0 116 -36.5t46 -110.5q0 -54 -31 -105h-112q41 44 41 99q0 33 -17 49t-43 16q-51 0 -71 -57z" />
    <glyph glyph-name="uni1EDF" unicode="&#x1edf;" horiz-adv-x="1175" 
d="M1130 1090q0 -75 -35 -144t-96 -119q113 -137 113 -331q0 -106 -36.5 -200.5t-102 -166t-165.5 -113t-220 -41.5q-158 0 -278.5 71.5t-182 189t-61.5 260.5q0 142 61.5 258.5t182 188t278.5 71.5q201 0 342 -115q71 60 86 127q-8 -4 -29 -4q-42 0 -70 29t-28 75
t32.5 80.5t79.5 34.5q54 0 91.5 -41t37.5 -110zM588 207q117 0 185.5 83.5t68.5 205.5q0 121 -68.5 203.5t-185.5 82.5t-184.5 -82.5t-67.5 -203.5q0 -122 67.5 -205.5t184.5 -83.5zM516 1186l-92 28q19 56 62 86.5t102 30.5q70 0 116 -36.5t46 -110.5q0 -54 -31 -105h-113
q41 44 41 99q0 33 -16.5 49t-42.5 16q-52 0 -72 -57z" />
    <glyph glyph-name="uni1EE0" unicode="&#x1ee0;" horiz-adv-x="1566" 
d="M782 -25q-152 0 -284.5 53t-226.5 145.5t-147.5 224.5t-53.5 284t53.5 284t147.5 224.5t226.5 145.5t284.5 53q161 0 298 -58t235 -164q32 27 57.5 63.5t32.5 67.5q-8 -4 -29 -4q-42 0 -70 30t-28 75q0 47 33.5 80.5t79.5 33.5q54 0 91.5 -40t37.5 -109
q0 -80 -38.5 -150.5t-105.5 -121.5q121 -175 121 -410q0 -203 -92 -365t-255 -252t-368 -90zM782 233q186 0 301 127.5t115 321.5q0 195 -115 321.5t-301 126.5t-299.5 -126.5t-113.5 -321.5q0 -194 113.5 -321.5t299.5 -127.5zM899 1477q-39 0 -70.5 14.5t-52 35
t-38.5 40.5t-38 34.5t-41 14.5q-33 0 -53 -32t-20 -95h-137q0 131 57 202.5t164 71.5q46 0 83 -21.5t57 -47t46 -47t51 -21.5q33 0 53.5 31.5t20.5 93.5h137q0 -131 -56 -202.5t-163 -71.5z" />
    <glyph glyph-name="uni1EE1" unicode="&#x1ee1;" horiz-adv-x="1175" 
d="M1130 1090q0 -75 -35 -144t-96 -119q113 -137 113 -331q0 -106 -36.5 -200.5t-102 -166t-165.5 -113t-220 -41.5q-158 0 -278.5 71.5t-182 189t-61.5 260.5q0 142 61.5 258.5t182 188t278.5 71.5q201 0 342 -115q71 60 86 127q-8 -4 -29 -4q-42 0 -70 29t-28 75
t32.5 80.5t79.5 34.5q54 0 91.5 -41t37.5 -110zM588 207q117 0 185.5 83.5t68.5 205.5q0 121 -68.5 203.5t-185.5 82.5t-184.5 -82.5t-67.5 -203.5q0 -122 67.5 -205.5t184.5 -83.5zM692 1135q-39 0 -70.5 14.5t-52 35t-38 40.5t-37.5 34.5t-41 14.5q-33 0 -53.5 -32
t-20.5 -95h-137q0 131 57 202.5t164 71.5q46 0 83 -21.5t57 -47t46 -47t51 -21.5q33 0 53.5 31.5t20.5 93.5h137q0 -131 -56 -202.5t-163 -71.5z" />
    <glyph glyph-name="uni1EE2" unicode="&#x1ee2;" horiz-adv-x="1566" 
d="M782 -25q-152 0 -284.5 53t-226.5 145.5t-147.5 224.5t-53.5 284t53.5 284t147.5 224.5t226.5 145.5t284.5 53q161 0 298 -58t235 -164q32 27 57.5 63.5t32.5 67.5q-8 -4 -29 -4q-42 0 -70 30t-28 75q0 47 33.5 80.5t79.5 33.5q54 0 91.5 -40t37.5 -109
q0 -80 -38.5 -150.5t-105.5 -121.5q121 -175 121 -410q0 -203 -92 -365t-255 -252t-368 -90zM782 233q186 0 301 127.5t115 321.5q0 195 -115 321.5t-301 126.5t-299.5 -126.5t-113.5 -321.5q0 -194 113.5 -321.5t299.5 -127.5zM791 -401q-59 0 -99.5 40.5t-40.5 98.5
q0 57 41 98t99 41q56 0 96.5 -41t40.5 -98q0 -58 -40.5 -98.5t-96.5 -40.5z" />
    <glyph glyph-name="uni1EE3" unicode="&#x1ee3;" horiz-adv-x="1175" 
d="M1130 1090q0 -75 -35 -144t-96 -119q113 -137 113 -331q0 -106 -36.5 -200.5t-102 -166t-165.5 -113t-220 -41.5q-158 0 -278.5 71.5t-182 189t-61.5 260.5q0 142 61.5 258.5t182 188t278.5 71.5q201 0 342 -115q71 60 86 127q-8 -4 -29 -4q-42 0 -70 29t-28 75
t32.5 80.5t79.5 34.5q54 0 91.5 -41t37.5 -110zM588 207q117 0 185.5 83.5t68.5 205.5q0 121 -68.5 203.5t-185.5 82.5t-184.5 -82.5t-67.5 -203.5q0 -122 67.5 -205.5t184.5 -83.5zM590 -401q-58 0 -98.5 40.5t-40.5 98.5q0 57 40.5 98t98.5 41q56 0 96.5 -41t40.5 -98
q0 -58 -40.5 -98.5t-96.5 -40.5z" />
    <glyph glyph-name="uni1EE4" unicode="&#x1ee4;" horiz-adv-x="1501" 
d="M752 -25q-153 0 -271.5 41.5t-193.5 117.5t-113.5 180t-38.5 231v821h295v-811q0 -146 83.5 -234t238.5 -88q154 0 236.5 87.5t82.5 234.5v811h297v-819q0 -264 -156.5 -418t-459.5 -154zM758 -401q-59 0 -99.5 40.5t-40.5 98.5q0 57 41 98t99 41q56 0 96.5 -41t40.5 -98
q0 -58 -40.5 -98.5t-96.5 -40.5z" />
    <glyph glyph-name="uni1EE5" unicode="&#x1ee5;" 
d="M1057 0h-260v125q-58 -65 -146.5 -107.5t-201.5 -42.5q-159 0 -239.5 82t-80.5 230v702h260v-600q0 -98 47 -140t135 -42q70 0 129 32t97 80v670h260v-989zM598 -401q-58 0 -98.5 40.5t-40.5 98.5q0 57 40.5 98t98.5 41q56 0 96.5 -41t40.5 -98q0 -58 -40.5 -98.5
t-96.5 -40.5z" />
    <glyph glyph-name="uni1EE6" unicode="&#x1ee6;" horiz-adv-x="1501" 
d="M752 -25q-153 0 -271.5 41.5t-193.5 117.5t-113.5 180t-38.5 231v821h295v-811q0 -146 83.5 -234t238.5 -88q154 0 236.5 87.5t82.5 234.5v811h297v-819q0 -264 -156.5 -418t-459.5 -154zM682 1534l-92 29q19 56 62 86t102 30q70 0 115.5 -36.5t45.5 -110.5
q0 -56 -30 -105h-113q41 44 41 99q0 33 -16.5 49t-42.5 16q-52 0 -72 -57z" />
    <glyph glyph-name="uni1EE7" unicode="&#x1ee7;" 
d="M1057 0h-260v125q-58 -65 -146.5 -107.5t-201.5 -42.5q-159 0 -239.5 82t-80.5 230v702h260v-600q0 -98 47 -140t135 -42q70 0 129 32t97 80v670h260v-989zM522 1186l-92 28q19 56 62 86.5t102 30.5q70 0 116 -36.5t46 -110.5q0 -54 -31 -105h-113q41 44 41 99
q0 33 -16.5 49t-42.5 16q-52 0 -72 -57z" />
    <glyph glyph-name="uni1EE8" unicode="&#x1ee8;" horiz-adv-x="1501" 
d="M1137 1776l-332 -295h-182l274 295h240zM1591 1487q0 -95 -58 -182t-165 -136v-622q0 -264 -156.5 -418t-459.5 -154q-153 0 -271.5 41.5t-193.5 117.5t-113.5 180t-38.5 231v821h295v-811q0 -146 83.5 -234t238.5 -88q154 0 236.5 87.5t82.5 234.5v811h297v-88
q40 28 71 68t38 79q-6 -6 -29 -6q-42 0 -70 30t-28 77q0 46 33 79t79 33q54 0 91.5 -41t37.5 -110z" />
    <glyph glyph-name="uni1EE9" unicode="&#x1ee9;" 
d="M975 1434l-332 -295h-182l274 295h240zM1057 0h-260v125q-58 -65 -146.5 -107.5t-201.5 -42.5q-159 0 -239.5 82t-80.5 230v702h260v-600q0 -98 47 -140t135 -42q70 0 129 32t97 80v670h260v-35q44 51 53 99q-8 -4 -29 -4q-43 0 -70.5 28.5t-27.5 75.5q0 46 33 80.5
t80 34.5q55 0 92 -41t37 -111q0 -80 -43.5 -157.5t-124.5 -131.5v-827z" />
    <glyph glyph-name="uni1EEA" unicode="&#x1eea;" horiz-adv-x="1501" 
d="M883 1481h-183l-331 295h237zM1591 1487q0 -95 -58 -182t-165 -136v-622q0 -264 -156.5 -418t-459.5 -154q-153 0 -271.5 41.5t-193.5 117.5t-113.5 180t-38.5 231v821h295v-811q0 -146 83.5 -234t238.5 -88q154 0 236.5 87.5t82.5 234.5v811h297v-88q40 28 71 68t38 79
q-6 -6 -29 -6q-42 0 -70 30t-28 77q0 46 33 79t79 33q54 0 91.5 -41t37.5 -110z" />
    </font>
</defs>
</svg>
